<?xml version="1.0" standalone="no"?>
<!DOCTYPE svg PUBLIC "-//W3C//DTD SVG 1.1//EN" "http://www.w3.org/Graphics/SVG/1.1/DTD/svg11.dtd" >
<svg>
<metadata>
Created by FontForge 20120731 at Fri Jan 17 17:46:57 2014
 By World Wide Web Server
 (C) Copyright 1992 The Monotype Corporation plc. All Rights Reserved. 
</metadata>
<defs>
<font id="ModernMT-Extended" horiz-adv-x="510" >
  <font-face 
    font-family="Modern MT Extended"
    font-weight="400"
    font-stretch="expanded"
    units-per-em="1000"
    panose-1="0 0 0 0 0 0 0 0 0 0"
    ascent="800"
    descent="-200"
    x-height="419"
    cap-height="676"
    bbox="-158 -250 1007 946"
    underline-thickness="50"
    underline-position="-50"
    unicode-range="U+000D-FB02"
  />
<missing-glyph horiz-adv-x="220" 
 />
    <glyph glyph-name=".notdef" horiz-adv-x="220" 
 />
    <glyph glyph-name=".null" horiz-adv-x="0" 
 />
    <glyph glyph-name=".null" horiz-adv-x="0" 
 />
    <glyph glyph-name="nonmarkingreturn" unicode="&#xd;" horiz-adv-x="250" 
 />
    <glyph glyph-name="space" unicode=" " horiz-adv-x="220" 
 />
    <glyph glyph-name="exclam" unicode="!" horiz-adv-x="281" 
d="M135 162v80q0 41 -5 90t-17 124q-8 53 -11.5 82t-3.5 49q0 41 11.5 64.5t31.5 23.5q21 0 32.5 -25t11.5 -70q0 -15 -2.5 -40t-9.5 -67q-12 -75 -17 -129.5t-5 -102.5v-79h-16zM141 80q20 -1 32.5 -13.5t12.5 -31.5t-13 -32t-32 -13t-32 13t-13 32q0 17 12.5 31t32.5 14z
" />
    <glyph glyph-name="quotedbl" unicode="&#x22;" horiz-adv-x="408" 
d="M125 392l-29 193q-1 7 -1 13.5v13.5q0 65 38 65q19 0 29.5 -15t10.5 -42q0 -14 -3 -35l-28 -193h-17zM266 392l-29 193q-1 7 -1 13.5v13.5q0 65 38 65q19 0 29.5 -15t10.5 -42q0 -14 -3 -35l-28 -193h-17z" />
    <glyph glyph-name="numbersign" unicode="#" horiz-adv-x="668" 
d="M46 463h164l43 203h42l-43 -203h223l42 203h43l-43 -203h104v-43h-112l-42 -198h154v-43h-163l-41 -202h-44l43 202h-223l-42 -202h-43l42 202h-104v43h113l42 198h-155v43zM243 420l-41 -197h223l41 197h-223z" />
    <glyph glyph-name="dollar" unicode="$" 
d="M218 685v-37q20 4 36.5 5t37.5 -1v33h16v-36q63 -18 95.5 -51t32.5 -78q0 -25 -12.5 -41t-32.5 -16q-21 0 -35.5 13t-14.5 33q0 15 6.5 26t21.5 23q15 11 15 20q0 17 -18 29t-58 25v-279q21 -11 45.5 -26t45.5 -37.5t35 -54.5t14 -77q0 -80 -59 -136q-18 -17 -34 -27
t-47 -23v-103h-15v99q-18 -5 -41 -5.5t-34 1.5v-95h-16v98q-66 18 -102.5 56.5t-36.5 87.5q0 32 13 51.5t35 19.5t36.5 -14.5t14.5 -35.5q0 -31 -33 -45q-26 -12 -26 -26q0 -10 8.5 -22t22 -22.5t31.5 -19t37 -12.5v315q-21 12 -43 25.5t-40 33.5t-29 47t-11 66
q0 57 31.5 101.5t91.5 70.5v41h16zM202 627q-40 -20 -57.5 -46.5t-17.5 -64.5q0 -75 75 -116v227zM292 634q-23 3 -37 3t-37 -5v-241q18 -8 36.5 -15.5t37.5 -15.5v274zM308 -10q49 20 71 50.5t22 76.5q0 48 -20.5 78t-72.5 58v-263zM218 -18q15 -3 35.5 -2.5t39.5 6.5v274
q-19 9 -37.5 16.5t-37.5 15.5v-310z" />
    <glyph glyph-name="percent" unicode="%" horiz-adv-x="1010" 
d="M724 320q30 0 56.5 -13.5t46 -37t30.5 -55t11 -68.5q0 -39 -11 -72t-30 -57t-45.5 -37.5t-57.5 -13.5q-30 0 -56.5 13.5t-46 37t-30.5 55.5t-11 69q0 39 11 71.5t30 56.5t45.5 37.5t57.5 13.5zM725 -21q37 0 51 31t14 110q0 11 -0.5 31.5t-1.5 41.5t-2 38t-1 19
q-3 24 -18.5 40.5t-41.5 16.5q-38 0 -52.5 -30t-14.5 -110q0 -8 0.5 -27.5t1.5 -40.5t1.5 -38.5t1.5 -23.5q0 -3 2.5 -12.5t9 -19.5t18.5 -18t32 -8zM296 686q30 0 56.5 -13.5t46 -37t30.5 -55t11 -68.5q0 -39 -11 -72t-30 -57t-45.5 -37.5t-57.5 -13.5q-30 0 -56.5 13.5
t-46 37t-30.5 55.5t-11 69q0 39 11 71.5t30 56.5t45.5 37.5t57.5 13.5zM297 345q37 0 51 31t14 110q0 11 -0.5 31.5t-1.5 41.5t-2 38t-1 19q-3 24 -18.5 40.5t-41.5 16.5q-38 0 -52.5 -30t-14.5 -110q0 -8 0.5 -27.5t1.5 -40.5t1.5 -38.5t1.5 -23.5q0 -3 2.5 -12.5t9 -19.5
t18.5 -18t32 -8zM734 684h40l-499 -717h-40z" />
    <glyph glyph-name="ampersand" unicode="&#x26;" horiz-adv-x="729" 
d="M670 185q-2 -94 -43 -149t-109 -55q-34 0 -62.5 18t-60.5 59q-71 -77 -160 -77q-36 0 -67 12.5t-53.5 34.5t-35.5 52t-13 65q0 38 14.5 69.5t38.5 59.5t54.5 52.5t62.5 47.5q-17 39 -27 78t-10 68t9 55.5t24 46t35 31t42 11.5q47 0 78 -30.5t31 -78.5q0 -40 -24 -73
t-83 -75l128 -262q22 37 43 83t21 98q0 35 -25 57.5t-64 22.5h-14v15h253v-14h-16q-26 -1 -45 -14t-33.5 -34t-26 -47.5t-22.5 -54.5q-12 -31 -21 -51.5t-16 -34.5t-12.5 -23.5t-11.5 -18.5q30 -60 54 -85.5t51 -25.5q45 0 71 43t29 124h16zM305 422q67 46 67 132
q0 41 -17 67.5t-43 26.5t-42 -19t-16 -51q0 -24 14 -66t37 -90zM244 357q-52 -35 -76.5 -73.5t-24.5 -86.5q0 -38 10.5 -71t28.5 -58t42.5 -39t52.5 -14q54 0 109 57q-36 63 -68 127t-62 130z" />
    <glyph glyph-name="quotesingle" unicode="'" horiz-adv-x="180" 
d="M82 392l-29 193q-1 7 -1 13.5v13.5q0 65 38 65q19 0 29.5 -15t10.5 -42q0 -14 -3 -35l-28 -193h-17z" />
    <glyph glyph-name="parenleft" unicode="(" horiz-adv-x="333" 
d="M246 682q-19 -36 -33 -63.5t-24 -52t-18 -50.5t-17 -59q-29 -108 -29 -206q0 -81 12.5 -148t30.5 -121.5t39 -96t37 -71.5h-17q-26 30 -44 53.5t-31.5 45.5t-24.5 45t-22 53q-41 109 -41 233q0 91 17.5 161t43 122.5t54.5 90t51 64.5h16z" />
    <glyph glyph-name="parenright" unicode=")" horiz-adv-x="333" 
d="M87 -186q20 36 33.5 63.5t23.5 52t18 50.5t17 59q29 108 29 206q0 81 -12.5 148.5t-30.5 121.5t-38.5 95.5t-37.5 71.5h17q26 -30 44 -53.5t31.5 -45.5t24.5 -45t22 -53q41 -109 41 -233q0 -91 -17.5 -161t-43 -122.5t-54 -90t-51.5 -64.5h-16z" />
    <glyph glyph-name="asterisk" unicode="*" horiz-adv-x="532" 
d="M260 486q0 14 -1 23.5t-3 18t-5.5 18t-8.5 22.5q-9 20 -11.5 31t-2.5 25q0 21 10.5 34t27.5 13t27 -14t10 -37q0 -10 -3 -21.5t-11 -32.5q-13 -36 -15.5 -51t-1.5 -29l5 -3q19 9 30 18.5t28 32.5q25 30 42 41.5t37 11.5q14 0 23.5 -10.5t9.5 -24.5q0 -42 -82 -54
q-16 -2 -26.5 -4t-19.5 -5t-16.5 -7t-17.5 -10v-9q19 -10 34 -14.5t46 -9.5q11 -2 25 -5t26.5 -9.5t21.5 -16.5t9 -27q0 -14 -10 -23t-25 -9q-18 0 -35.5 12t-38.5 38q-17 22 -28 32t-31 21l-6 -3q0 -23 3.5 -38.5t14.5 -44.5q8 -20 10.5 -31.5t2.5 -21.5q0 -21 -10.5 -35.5
t-25.5 -14.5q-17 0 -28 14t-11 34q0 11 3 23.5t12 35.5q6 18 9.5 29.5t5 20t1.5 15v14.5l-6 3q-18 -10 -28 -18.5t-27 -30.5q-6 -7 -14.5 -17t-18.5 -18t-21.5 -14t-24.5 -6q-14 0 -24 10.5t-10 24.5q0 40 83 55q31 6 46 11t32 15v7q-17 11 -32 15.5t-47 9.5q-30 5 -42.5 9
t-24.5 15q-16 19 -16 34q0 13 11 22.5t25 9.5q18 0 37.5 -14.5t45.5 -47.5q14 -17 22.5 -24.5t27.5 -18.5z" />
    <glyph glyph-name="plus" unicode="+" horiz-adv-x="666" 
d="M71 341h240v241h43v-241h242v-43h-242v-239h-43v239h-240v43z" />
    <glyph glyph-name="comma" unicode="," horiz-adv-x="281" 
d="M92 -150q103 58 103 137q0 22 -14 22q-5 0 -11 -5q-8 -6 -13.5 -8t-13.5 -2q-18 0 -29.5 12t-11.5 32t13 33t34 13q27 0 44.5 -25.5t17.5 -64.5q0 -99 -113 -158z" />
    <glyph glyph-name="hyphen" unicode="-" horiz-adv-x="333" 
d="M60 239h213v-41h-213v41z" />
    <glyph glyph-name="period" unicode="." horiz-adv-x="281" 
d="M140 -9q-20 1 -34 14.5t-14 33.5t14 34.5t34 14.5t34.5 -14.5t14.5 -34.5q0 -18 -13.5 -33t-35.5 -15z" />
    <glyph glyph-name="slash" unicode="/" horiz-adv-x="333" 
d="M257 683h26l-206 -929h-26z" />
    <glyph glyph-name="zero" unicode="0" 
d="M252 -21q-40 0 -80 29t-72 76.5t-51.5 106.5t-19.5 119q0 53 16 114t45.5 112.5t71 85.5t92.5 34q32 0 60.5 -14t53.5 -40q26 -26 46.5 -59.5t35.5 -71t23 -76.5t8 -77q0 -64 -19.5 -125t-52 -108.5t-73.5 -76.5t-84 -29zM138 282q0 -49 1 -83.5t3 -59.5t6.5 -42.5
t10.5 -32.5q13 -31 37 -49.5t60 -18.5q20 0 39 8t32 21q12 13 21 33.5t14 51t7.5 73t2.5 99.5q0 20 -1 56t-2.5 73t-3 68t-2.5 40q-1 11 -5 31t-15.5 40t-32.5 35t-56 15q-42 0 -65 -22t-34.5 -58.5t-14 -84t-2.5 -97.5v-96z" />
    <glyph glyph-name="one" unicode="1" 
d="M113 628q35 2 70 5.5t53 7.5q28 5 43 8t18 3h16v-596q0 -41 37 -41h70v-15h-306v14h54q30 0 40.5 9t10.5 35v499q0 32 -16.5 43.5t-64.5 11.5h-25v16z" />
    <glyph glyph-name="two" unicode="2" 
d="M25 0q11 18 22.5 34t32 39.5t53.5 59.5t88 94q25 27 47.5 53t39 55.5t26 65.5t9.5 83q0 70 -32 109.5t-89 39.5q-28 0 -55 -13t-48.5 -34.5t-34.5 -48.5t-13 -55q0 -27 14 -27q5 0 12 10q18 24 39 24q24 0 40 -17.5t16 -43.5t-17 -43t-43 -17q-35 0 -56 29t-21 77
q0 38 15.5 70.5t42 56.5t62.5 37.5t77 13.5q40 0 76.5 -14.5t64 -39t44 -57t16.5 -67.5q0 -29 -10.5 -54t-27.5 -46.5t-38.5 -40.5t-42.5 -37q-54 -45 -95 -82t-73 -70q-15 -16 -25.5 -27t-28.5 -32h258q18 0 28.5 4.5t17 14.5t10 25.5t7.5 37.5q2 13 3.5 19t3.5 17h15
l-36 -203h-394z" />
    <glyph glyph-name="three" unicode="3" 
d="M260 323q60 -9 92.5 -21.5t55.5 -35.5q45 -42 45 -100q0 -41 -18 -75.5t-50 -60t-75.5 -40t-94.5 -14.5q-78 0 -125 35.5t-47 94.5q0 31 18 52.5t43 21.5q26 0 42.5 -16t16.5 -42q0 -48 -45 -71q-17 -8 -17 -16t9 -15.5t24 -13.5t34 -10t38 -4q31 0 58 10.5t46 29.5
t27 46t8 70q0 73 -29 118.5t-77 45.5q-10 0 -20 -1.5t-26 -6.5q-11 -3 -16.5 -4t-10.5 -1q-16 0 -16 12q0 8 10.5 11.5t34.5 3.5q66 1 101 40t35 112q0 77 -30.5 117.5t-89.5 40.5q-18 0 -37 -5t-34 -13t-24.5 -18t-9.5 -20t20 -14q54 -12 54 -61q0 -26 -18 -45t-43 -19
q-28 0 -46.5 22t-18.5 56q0 27 13.5 52t36 43.5t52.5 29.5t63 11q44 0 82.5 -13t67.5 -36t45.5 -53t16.5 -65q0 -106 -171 -165z" />
    <glyph glyph-name="four" unicode="4" 
d="M262 520l-224 -308h224v308zM339 652l13 1v-442h131v-41h-131v-113q0 -23 8 -32t28 -9h84v-16h-330v17h89q31 0 31 34v119h-232v59z" />
    <glyph glyph-name="five" unicode="5" 
d="M132 641q69 -21 114.5 -30.5t78.5 -9.5q80 0 91 50h17q-17 -63 -52.5 -91.5t-97.5 -28.5q-29 0 -53 2.5t-62 9.5q-12 2 -17 2.5t-13 2.5l-27 -209q20 21 36.5 34.5t33 21.5t34.5 11.5t40 3.5q43 0 81 -16t66.5 -44t45 -64.5t16.5 -78.5q0 -46 -19.5 -87.5t-53 -73
t-77.5 -50t-93 -18.5q-37 0 -71.5 11.5t-61 31.5t-42 46t-15.5 54q0 32 20.5 54.5t49.5 22.5q24 0 41.5 -17t17.5 -40q0 -39 -41 -60q-14 -6 -19 -12t-5 -15q0 -12 10.5 -22.5t28 -18.5t40.5 -13t48 -5q67 0 99 48t32 148q0 71 -10 110.5t-33 62.5q-26 28 -65 28
q-49 0 -88 -29.5t-53 -75.5q-3 -11 -6 -15t-8 -4q-8 0 -8 13q0 2 1.5 8.5t3.5 13.5t4 13t2 9z" />
    <glyph glyph-name="six" unicode="6" 
d="M287 393q-12 0 -33 -8.5t-42 -30.5t-36.5 -60.5t-15.5 -99.5q0 -102 27 -149.5t85 -47.5q18 0 36.5 7.5t30.5 18.5q17 17 24.5 55t7.5 103q0 85 -7.5 127.5t-25.5 61.5q-8 8 -22 15.5t-29 7.5zM159 303q30 60 62 84.5t80 24.5q35 0 66.5 -17t55.5 -45.5t38.5 -66
t14.5 -79.5q0 -45 -16 -86t-43.5 -71.5t-63.5 -48.5t-76 -18q-49 0 -90.5 25t-72.5 68.5t-48.5 103.5t-17.5 130q0 72 20 135.5t54 111t79.5 75t97.5 27.5q30 0 55.5 -9t44.5 -24t30 -36t11 -45q0 -27 -18.5 -47t-44.5 -20q-22 0 -36.5 15.5t-14.5 40.5q0 50 47 61
q13 3 13 9t-8 12.5t-20.5 12.5t-27.5 10t-29 4q-59 0 -95 -38q-13 -13 -22 -30t-15 -44.5t-9 -68.5t-2 -103z" />
    <glyph glyph-name="seven" unicode="7" 
d="M85 656l16 1q0 -11 7 -18t22 -7h333q-3 -8 -6.5 -15.5t-9.5 -20.5q-37 -80 -60.5 -140t-38 -113.5t-21 -107t-9.5 -119.5l-1 -30q-4 -56 -19.5 -81t-44.5 -25q-23 0 -37.5 17.5t-14.5 46.5q0 25 12.5 63.5t29.5 79.5t35 78.5t29 59.5q18 37 31.5 65.5t24.5 53t20.5 47.5
t19.5 50h-251q-36 0 -48 -12q-3 -3 -5 -7.5t-3.5 -13.5t-3 -24.5t-4.5 -42.5l-2 -22h-16z" />
    <glyph glyph-name="eight" unicode="8" 
d="M180 298q-60 36 -88 76t-28 90q0 41 13.5 76.5t38 61t57.5 40t72 14.5t73.5 -12.5t60.5 -34t41.5 -49.5t15.5 -60q0 -26 -9.5 -46.5t-25.5 -37.5t-37 -31t-43 -28q15 -8 39.5 -22.5t47.5 -37t39.5 -54.5t16.5 -76q0 -39 -17 -73t-46 -59.5t-68 -40t-84 -14.5
q-43 0 -80 12.5t-64.5 35t-43 52.5t-15.5 65q0 29 11.5 51.5t30.5 40t43 32.5t49 29zM299 366q43 21 62.5 51t19.5 76q0 69 -36.5 108t-101.5 39q-56 0 -92 -32.5t-36 -82.5q0 -30 16.5 -53.5t40.5 -41.5t51.5 -31t49.5 -22q10 -5 14.5 -6.5t11.5 -4.5zM202 289
q-18 -9 -35.5 -19.5t-32 -27t-23 -40.5t-8.5 -59q0 -66 41 -106t109 -40q63 0 102 33.5t39 87.5q0 32 -14 56t-39.5 43t-61 36t-77.5 36z" />
    <glyph glyph-name="nine" unicode="9" 
d="M226 243q7 0 28 5.5t43.5 25.5t40 60.5t17.5 111.5q0 102 -27.5 147.5t-88.5 45.5q-36 0 -55 -18.5t-28 -45.5t-10.5 -56.5t-1.5 -52.5q0 -42 2.5 -82.5t4.5 -59.5q2 -14 8.5 -28.5t16.5 -26t22.5 -19t27.5 -7.5zM357 336q-52 -112 -144 -112q-35 0 -67 17.5t-56 46.5
t-38 67.5t-14 81.5q0 44 16.5 83.5t44 69.5t64 48t75.5 18q50 0 91.5 -24.5t72.5 -68t48 -103t17 -129.5q0 -55 -15 -117t-46.5 -114.5t-80 -87t-116.5 -34.5q-27 0 -52 9.5t-44.5 26t-31 37.5t-11.5 44q0 28 18 47t44 19q23 0 40 -17.5t17 -40.5q0 -46 -44 -57
q-14 -4 -14 -12q0 -7 8 -14t20 -13t27.5 -9.5t30.5 -3.5q25 0 51 11t44 30q10 11 19 25.5t15 41t9 68.5t2 107v59z" />
    <glyph glyph-name="colon" unicode=":" horiz-adv-x="281" 
d="M141 419q18 0 31 -13t13 -32q0 -18 -13 -31.5t-31 -13.5q-19 0 -32 13.5t-13 31.5q0 19 13 32t32 13zM141 82q20 -1 32.5 -13.5t12.5 -31.5t-13 -32t-32 -13t-32 13t-13 32q0 17 12.5 31t32.5 14z" />
    <glyph glyph-name="semicolon" unicode=";" horiz-adv-x="281" 
d="M144 327q-20 0 -34 13.5t-14 33.5t14 34t34 14t33.5 -14t13.5 -34t-13.5 -33.5t-33.5 -13.5zM92 -150q103 58 103 137q0 22 -14 22q-5 0 -11 -5q-8 -6 -13.5 -8t-13.5 -2q-18 0 -29.5 12t-11.5 32t13 33t34 13q27 0 44.5 -25.5t17.5 -64.5q0 -99 -113 -158z" />
    <glyph glyph-name="less" unicode="&#x3c;" horiz-adv-x="668" 
d="M595 79l-523 223v38l523 221v-47l-466 -193l466 -194v-48z" />
    <glyph glyph-name="equal" unicode="=" horiz-adv-x="667" 
d="M72 457h523v-43h-523v43zM72 230h523v-43h-523v43z" />
    <glyph glyph-name="greater" unicode="&#x3e;" horiz-adv-x="667" 
d="M72 561l523 -222v-38l-523 -222v47l466 194l-466 194v47z" />
    <glyph glyph-name="question" unicode="?" horiz-adv-x="448" 
d="M136 470q1 91 30.5 140t83.5 49q22 0 41 -9.5t32.5 -26t21.5 -39.5t8 -49q0 -43 -18 -85t-61 -101q-30 -42 -42.5 -67t-12.5 -46t12 -33.5t32 -12.5q46 0 58 71h15q-6 -42 -25.5 -64.5t-48.5 -22.5q-33 0 -54 29.5t-21 75.5q0 37 15 74.5t52 94.5q32 48 44 76t12 54
q0 27 -18.5 46t-44.5 19q-24 0 -45.5 -16.5t-32.5 -45.5q-9 -21 -13 -46.5t-4 -64.5h-16zM253 83q19 0 32.5 -13.5t13.5 -33.5q0 -19 -13.5 -32.5t-32.5 -13.5q-20 0 -33.5 13.5t-13.5 32.5q0 20 13.5 33.5t33.5 13.5z" />
    <glyph glyph-name="at" unicode="@" horiz-adv-x="921" 
d="M690 468l-57 -195l-30 -105q-6 -22 -11 -47t-5 -33q0 -17 10.5 -27.5t27.5 -10.5q38 0 75 27.5t66 72t47 101.5t18 115q0 66 -23 121.5t-64.5 96t-98 63t-123.5 22.5q-109 0 -189 -43.5t-132.5 -112t-78.5 -151t-26 -160.5q0 -85 28 -156t78.5 -122.5t120 -80.5
t152.5 -29q136 0 237.5 69.5t157.5 200.5h28q-22 -68 -63 -123t-96 -94t-122 -60.5t-140 -21.5q-92 0 -170.5 32.5t-135.5 89.5t-89 136t-32 172q0 102 35.5 190t98 152t148 100.5t185.5 36.5q76 0 139 -24.5t108.5 -68.5t70.5 -106t25 -136q0 -70 -21 -132.5t-57.5 -109.5
t-85 -74.5t-102.5 -27.5q-41 0 -59.5 16.5t-18.5 52.5q0 15 2 29t7 41q-16 -19 -37 -43t-46 -45.5t-52.5 -36t-55.5 -14.5q-40 0 -65 33t-25 84q0 52 25.5 111.5t64.5 110t87 84t93 33.5q67 0 83 -67l16 53zM518 448q-24 0 -48 -17t-46 -44t-41 -61t-32.5 -67t-21.5 -62.5
t-8 -48.5q0 -33 16 -53.5t41 -20.5q28 0 55 19t49 44t36.5 48t18.5 30q8 15 15.5 36.5t13.5 44t9.5 43.5t3.5 34q0 35 -16.5 55t-44.5 20z" />
    <glyph glyph-name="A" unicode="A" horiz-adv-x="729" 
d="M342 578l-121 -327h231zM21 15q36 1 60 13.5t40.5 32t27 45t20.5 51.5l196 528h38l198 -581q11 -30 18.5 -47.5t17 -27t22 -12t32.5 -2.5h18v-15h-313v15h85q37 0 37 28q0 12 -5 29l-51 152h-251l-7 -18q-30 -85 -30 -113q0 -36 28.5 -57t79.5 -21h25v-15h-286v15z" />
    <glyph glyph-name="B" unicode="B" horiz-adv-x="729" 
d="M282 364h89q78 0 122 39t44 108q0 66 -37.5 106t-100.5 40h-91q-26 0 -26 -34v-259zM282 348v-297q0 -19 6 -26.5t22 -7.5h87q38 0 69 12t53.5 34t35 52t12.5 67t-14.5 67.5t-40 52.5t-61 34t-78.5 12h-91zM39 676h341q56 0 104 -12t84 -33t56.5 -49t20.5 -61
q0 -60 -49.5 -99t-160.5 -67q29 -5 49.5 -9.5t37.5 -10t32 -12.5t32 -17q14 -8 30 -20t30 -27.5t23.5 -35.5t9.5 -44q0 -36 -23.5 -68.5t-63 -57t-92 -39t-111.5 -14.5h-350v15h93q23 0 36.5 15t13.5 43v530q0 58 -49 58h-94v15z" />
    <glyph glyph-name="C" unicode="C" horiz-adv-x="615" 
d="M578 247q-2 -22 -4 -38.5t-5 -29.5t-7.5 -25t-10.5 -26q-15 -34 -39 -61.5t-53 -47t-61 -30.5t-63 -11q-61 0 -115.5 28t-95.5 76t-65.5 111t-24.5 133q0 87 27.5 154.5t69 113t91 69.5t92.5 24q41 0 71 -12.5t51.5 -30t36 -37t24.5 -34.5q23 33 35.5 57.5t21.5 56.5h15
l6 -305h-15q-19 74 -49.5 135.5t-68.5 99.5q-23 26 -56 40.5t-65 14.5q-183 0 -183 -364q0 -100 18 -161.5t60 -103.5q23 -23 52.5 -35.5t61.5 -12.5q66 0 123 39t86 105q14 32 18 60t6 48h15z" />
    <glyph glyph-name="D" unicode="D" horiz-adv-x="792" 
d="M313 658q-27 0 -27 -29v-575q0 -37 29 -37h95q52 0 93 21.5t70 61.5t44.5 97t15.5 129q0 105 -17.5 170.5t-57.5 107.5q-52 54 -141 54h-104zM39 676h374q68 0 129.5 -27.5t107.5 -75t73 -110t27 -131.5q0 -67 -28 -127t-75.5 -105.5t-110.5 -72.5t-133 -27h-363v15h95
q50 0 50 58v530q0 58 -49 58h-97v15z" />
    <glyph glyph-name="E" unicode="E" horiz-adv-x="729" 
d="M37 676h621v-249h-15q-6 25 -18 64t-36 76t-63 64t-99 27h-126q-23 0 -23 -32v-273h35q149 0 153 175l15 -1v-375h-16q0 55 -9 84.5t-33 54.5q-42 45 -105 45h-40v-285q0 -19 7 -26.5t24 -7.5h129q56 0 102.5 31t78.5 89q17 30 25 59t13 53h16l-6 -249h-631v15h92
q23 0 36.5 15t13.5 43v531q0 27 -12.5 42t-36.5 15h-92v15z" />
    <glyph glyph-name="F" unicode="F" horiz-adv-x="677" 
d="M282 337q-3 -75 -3 -149q0 -47 0.5 -75.5t2.5 -45.5t5.5 -25t9.5 -14q13 -13 35 -13h69v-15h-354v15h84q50 0 50 58v530q0 58 -50 58h-95v15h609v-253h-15q-6 50 -24.5 93t-45.5 74.5t-61 49t-72 17.5h-120q-25 0 -25 -33v-271h50q38 0 70 23.5t48 61.5q8 19 11 40t3 58
h17v-385h-16v8q0 83 -34.5 130.5t-94.5 47.5h-54z" />
    <glyph glyph-name="G" unicode="G" horiz-adv-x="729" 
d="M599 -22q-10 48 -20.5 82t-27.5 59q-43 -73 -92.5 -107t-112.5 -34q-58 0 -111.5 28.5t-95 76.5t-66 110t-24.5 129q0 57 22 121t62 118t96 89.5t123 35.5q58 0 104 -27t90 -87q17 20 27 44t18 69h17l15 -313h-16q-6 23 -10.5 39.5t-9 30.5t-9.5 26.5t-12 27.5
q-16 37 -36.5 69t-47 55.5t-58 37t-68.5 13.5q-66 0 -104 -34.5t-57 -88t-24 -119t-5 -127.5q0 -158 44 -233t137 -75q36 0 67.5 14t55 38.5t36.5 58t13 71.5v56q0 14 -9.5 23t-24.5 9h-99l1 15h330v-15h-65q-37 0 -37 -38v-248h-16z" />
    <glyph glyph-name="H" unicode="H" horiz-adv-x="844" 
d="M39 676h354v-15h-69q-23 0 -36.5 -15t-13.5 -43v-237h301v237q0 58 -50 58h-68v15h348v-15h-80q-23 0 -36.5 -15t-13.5 -43v-530q0 -28 13.5 -43t36.5 -15h81v-15h-349v15h68q23 0 36.5 15t13.5 43v260h-301v-260q0 -28 13.5 -43t36.5 -15h69v-15h-354v15h85
q23 0 36.5 15t13.5 43v530q0 58 -49 58h-86v15z" />
    <glyph glyph-name="I" unicode="I" horiz-adv-x="448" 
d="M47 15h85q46 0 50 58v530q0 58 -49 58h-86v15h354v-15h-69q-23 0 -36.5 -15t-13.5 -43v-530q0 -28 13.5 -43t36.5 -15h69v-15h-354v15z" />
    <glyph glyph-name="J" unicode="J" horiz-adv-x="563" 
d="M426 214q0 -71 -23 -117t-55 -73t-67.5 -37.5t-61.5 -10.5q-38 0 -71.5 13t-58 36t-39 53.5t-14.5 65.5q0 39 19 64t48 25q25 0 43 -19t18 -45q0 -50 -50 -71q-15 -7 -20 -12.5t-6 -14.5q1 -15 11 -29t26.5 -25t36.5 -17.5t41 -6.5q44 0 68.5 15t36.5 36.5t14.5 46.5
t3.5 44v468q0 58 -49 58h-86v15h354v-15h-69q-50 0 -50 -58v-389z" />
    <glyph glyph-name="K" unicode="K" horiz-adv-x="844" 
d="M36 15h85q46 0 50 58v530q0 58 -49 58h-86v15h354v-15h-69q-50 0 -50 -58v-300l230 230q26 26 35.5 42.5t9.5 35.5q0 23 -16 36.5t-44 13.5h-21v15h297v-15h-20q-26 0 -49.5 -5.5t-47 -18.5t-48.5 -33.5t-54 -50.5l-113 -114l256 -366q41 -58 91 -58h51v-15h-373v15h100
q26 0 26 20q0 12 -11 29l-211 303l-88 -87v-207q0 -58 50 -58h69v-15h-354v15z" />
    <glyph glyph-name="L" unicode="L" horiz-adv-x="677" 
d="M39 15h86q24 0 36 13.5t14 44.5v530q0 58 -49 58h-86v15h354v-15h-69q-50 0 -50 -58v-535q0 -51 42 -51h71q43 0 82 18t71 50.5t55.5 78t35.5 100.5h13l-8 -264h-598v15z" />
    <glyph glyph-name="M" unicode="M" horiz-adv-x="844" 
d="M820 661h-73q-24 0 -36 -13.5t-14 -44.5v-530q0 -28 13.5 -43t36.5 -15h81v-15h-349v15h68q23 0 36.5 15.5t13.5 42.5v577q0 10 -6 10q-8 0 -11 -13l-193 -651h-10l-197 655q-1 9 -7 9q-4 0 -6.5 -5t-2.5 -13v-470q0 -157 98 -157h31v-15h-272v15h24q54 0 78.5 37.5
t24.5 119.5v417q0 72 -80 72h-51v15h256l151 -499l149 499h247v-15z" />
    <glyph glyph-name="N" unicode="N" horiz-adv-x="792" 
d="M25 676h223l376 -546v324q0 61 -13 102.5t-39 67.5q-17 16 -44.5 26.5t-54.5 10.5h-19v15h315v-15h-21q-52 0 -80 -28q-9 -9 -15 -21t-9.5 -31.5t-4.5 -50t-1 -76.5v-477h-30l-417 606v-365q0 -203 141 -203h33v-15h-342v15h21q25 0 51 9.5t42 24.5q30 29 35 70.5t5 99.5
v278q0 164 -115 164h-37v15z" />
    <glyph glyph-name="O" unicode="O" horiz-adv-x="729" 
d="M365 -22q-62 0 -118 29t-98 77.5t-67 113t-25 136.5q0 62 23 124t63.5 112t96.5 81.5t122 31.5q68 0 125 -31t98 -80.5t64.5 -112t23.5 -125.5q0 -71 -25 -135.5t-67 -113.5t-98 -78t-118 -29zM368 -5q35 0 69 13t56 35q34 35 48.5 96t14.5 167q0 22 -1 51t-2.5 57.5
t-3.5 54t-4 39.5q-11 78 -60.5 118.5t-121.5 40.5q-67 0 -104.5 -29.5t-56.5 -73.5t-23.5 -96.5t-4.5 -98.5q0 -10 0.5 -36.5t2 -58.5t3.5 -65.5t5 -58.5q3 -23 14 -50t32.5 -50.5t55 -39t81.5 -15.5z" />
    <glyph glyph-name="P" unicode="P" horiz-adv-x="677" 
d="M279 331h99q45 0 73.5 9t48.5 30q20 20 31 51.5t11 66.5q0 170 -159 170h-65q-24 0 -31.5 -6.5t-7.5 -26.5v-294zM279 315q-3 -67 -3 -136q0 -44 0.5 -71t2.5 -43t5.5 -23.5t9.5 -13.5q13 -13 34 -13h69v-15h-353v15h84q50 0 50 58v530q0 58 -49 58h-87v15h333
q63 0 114.5 -14t88 -39t57 -60t20.5 -78q0 -35 -20 -66t-54.5 -54t-81 -36.5t-99.5 -13.5h-121z" />
    <glyph glyph-name="Q" unicode="Q" horiz-adv-x="729" 
d="M682 55q0 -19 -0.5 -43.5t-5 -50t-13.5 -49.5t-27 -42q-19 -20 -45.5 -30.5t-55.5 -10.5q-43 0 -75.5 18t-45.5 48q-7 15 -9.5 32.5t-3.5 49.5q-12 -1 -21 -1.5t-16 -0.5q-61 0 -117 29t-98 78t-67 114t-25 136q0 69 25 132.5t67 112t97.5 77.5t115.5 29t115.5 -29
t97.5 -77.5t67 -112.5t25 -135q0 -69 -23 -132.5t-67 -114.5q-10 -13 -20 -23t-21 -19t-25 -18.5t-33 -21.5l3 -7.5t4 -10.5q7 -18 15 -39t19.5 -39t26 -29.5t34.5 -11.5t38 16t29 44q11 24 15 53.5t4 78.5h16zM549 293q0 15 -0.5 42.5t-2 59t-3.5 62.5t-5 52q-2 18 -11 45
t-29 52t-54 42.5t-86 17.5q-33 0 -64.5 -13t-54.5 -36q-34 -34 -49 -93t-15 -160v-19q2 -79 4.5 -132.5t13 -90.5t30.5 -62.5t56 -48.5q-8 10 -15.5 28t-7.5 43q0 18 7.5 34t20 28t29 19t34.5 7q29 0 48.5 -14t33.5 -35.5t23 -47.5t16 -49q18 16 33 34t25.5 47.5t16.5 74
t6 113.5zM274 81q0 -23 11.5 -46t25.5 -37q17 -4 28 -5.5t25 -1.5q9 0 17 0.5t21 2.5q1 16 1.5 25.5t0.5 17.5q0 113 -63 113q-26 0 -46.5 -20.5t-20.5 -48.5z" />
    <glyph glyph-name="R" unicode="R" horiz-adv-x="792" 
d="M277 350h105q81 0 127.5 43t46.5 117q0 68 -43 108t-116 40h-92q-28 0 -28 -33v-275zM277 334q-3 -73 -3 -147q0 -47 0.5 -75.5t2.5 -45t5.5 -24.5t9.5 -14q13 -13 35 -13h69v-15h-354v15h85q23 0 36.5 15t13.5 43v531q0 27 -13 42t-36 15h-74v15h314q66 0 121 -12.5
t94.5 -35t61.5 -53.5t22 -69q0 -35 -23 -67t-64 -54q-28 -15 -61 -25.5t-92 -22.5q38 -17 74 -36t66 -46.5t50 -67t25 -98.5q3 -36 10.5 -50t24.5 -14q23 0 35.5 19.5t18 46.5t6.5 56t1 48v21h16v-31q0 -69 -8.5 -103.5t-30.5 -57.5q-29 -29 -69 -29q-43 0 -72 29
q-20 20 -29.5 48t-13.5 82q-2 29 -6 50.5t-10.5 38t-16.5 29t-24 23.5q-51 39 -129 39h-68z" />
    <glyph glyph-name="S" unicode="S" horiz-adv-x="563" 
d="M65 300q4 -21 11 -52t19.5 -65t31.5 -67.5t46.5 -60.5t65 -44t87.5 -17q32 0 58 10t45.5 27t30 41.5t10.5 52.5q0 36 -19.5 63.5t-49.5 48t-65.5 36t-68.5 27.5q-109 41 -145 71q-5 4 -9.5 8t-9.5 9q-23 25 -36.5 56.5t-13.5 61.5q0 38 14 71.5t38 58t56.5 38.5t70.5 14
q52 0 93 -20.5t88 -71.5q20 22 30 39.5t19 44.5h17v-260h-16q-3 21 -6 37t-7 29t-9 25t-12 26q-29 59 -80 98t-116 39q-27 0 -51 -9.5t-42.5 -25t-29 -36.5t-10.5 -45q0 -28 14.5 -49.5t39.5 -39t59 -32.5t74 -29q54 -20 91.5 -38t56.5 -33q42 -35 61 -77t19 -85t-14.5 -79
t-41 -62t-62.5 -41t-79 -15q-57 0 -107.5 30t-89.5 87q-11 -16 -24 -39.5t-31 -70.5h-17v315h16z" />
    <glyph glyph-name="T" unicode="T" horiz-adv-x="677" 
d="M624 422q-4 56 -24 108t-50 86q-22 24 -45.5 33.5t-64.5 9.5q-32 0 -40.5 -5.5t-9.5 -26.5v-554q0 -28 13.5 -43t36.5 -15h69v-15h-354v15h85q23 0 36.5 15t13.5 43v554q0 19 -8 25.5t-31 6.5q-28 0 -57 -5.5t-55.5 -28.5t-48.5 -71t-36 -132h-16v254h601v-254h-15z" />
    <glyph glyph-name="U" unicode="U" horiz-adv-x="792" 
d="M771 661q-61 -3 -89.5 -40t-28.5 -115v-254q0 -60 -18.5 -110t-52.5 -86.5t-80.5 -56.5t-102.5 -20q-54 0 -103.5 19t-81.5 52q-22 22 -34 46t-18.5 48.5t-8 48t-2.5 44.5v366q0 58 -49 58h-80v15h364v-15h-87q-26 0 -37 -14.5t-11 -47.5v-383q0 -59 11 -97t35 -65
q47 -50 127 -50q48 0 87 18t67 51t43.5 79.5t15.5 102.5v228q0 48 -10 84t-29 56q-15 17 -41 27.5t-49 10.5h-24v15h287v-15z" />
    <glyph glyph-name="V" unicode="V" horiz-adv-x="729" 
d="M19 676h330v-15h-80q-19 0 -30 -7.5t-11 -21.5q0 -11 3 -19l166 -493l136 353q10 26 16 42.5t9.5 28t4.5 20t1 19.5q0 35 -25 56.5t-67 21.5h-38v15h277v-15q-10 -1 -27 -4.5t-36 -16.5t-39 -39t-38 -73l-210 -547h-21l-213 632q-16 48 -63 48h-45v15z" />
    <glyph glyph-name="W" unicode="W" horiz-adv-x="1010" 
d="M18 676h282v-15h-34q-57 0 -57 -30v-9t2 -9l141 -489l142 417l-14 55q-10 36 -23.5 50.5t-38.5 14.5h-57v15h319v-15h-65q-44 0 -44 -32q0 -8 3 -17l141 -488l121 362q18 54 18 101q0 35 -24 54.5t-68 19.5h-17v15h247v-15q-19 -1 -36.5 -7.5t-34 -25t-33.5 -52
t-35 -87.5l-171 -510h-24l-155 535l-184 -535l-22 1l-180 624q-8 27 -25 42t-41 15h-33v15z" />
    <glyph glyph-name="X" unicode="X" horiz-adv-x="844" 
d="M56 676h340v-15h-69q-32 0 -32 -22q0 -5 2.5 -11.5t6.5 -12.5l138 -212l98 134q29 38 29 70q0 26 -18 40t-50 14h-41v15h294v-15h-25q-78 0 -167 -122l-111 -150l195 -301q13 -20 23 -34t21.5 -22.5t25 -12.5t34.5 -4h57v-15h-359v15h76q16 0 25.5 5.5t9.5 15.5
q0 7 -7 17l-163 252l-116 -157q-20 -26 -28.5 -44.5t-8.5 -34.5q0 -26 19 -40t54 -14h66v-15h-338v15q35 1 61.5 7t51.5 21.5t50.5 42.5t57.5 70l122 163l-197 304q-25 38 -64 38h-63v15z" />
    <glyph glyph-name="Y" unicode="Y" horiz-adv-x="792" 
d="M458 251q-2 -26 -2 -50.5v-50.5q0 -36 1 -61.5t5.5 -42t15.5 -24t30 -7.5h68v-15h-354v15h85q23 0 36.5 15t13.5 43v169l-209 385q-18 34 -62 34h-47v15h339v-15h-82q-34 0 -34 -23q0 -12 8 -26l182 -335l133 251q8 17 14 36t6 32q0 31 -22 48t-60 17h-54v15h303v-15
q-37 -1 -62 -11t-46 -30.5t-40.5 -54t-44.5 -81.5z" />
    <glyph glyph-name="Z" unicode="Z" horiz-adv-x="615" 
d="M89 676h506l-447 -659h168q52 0 102.5 34t82.5 89q13 23 22 48t20 70h16l-6 -258h-533l448 658h-147q-85 0 -144 -59.5t-78 -162.5h-14z" />
    <glyph glyph-name="bracketleft" unicode="[" horiz-adv-x="333" 
d="M278 658h-159v-821h160v-18h-215v857h214v-18z" />
    <glyph glyph-name="backslash" unicode="\" horiz-adv-x="333" 
d="M283 -246h-26l-206 929h26z" />
    <glyph glyph-name="bracketright" unicode="]" horiz-adv-x="333" 
d="M55 676h214v-857h-215v18h160v821h-159v18z" />
    <glyph glyph-name="asciicircum" unicode="^" horiz-adv-x="469" 
d="M243 676l208 -350h-45l-171 286l-171 -286h-46l211 350h14z" />
    <glyph glyph-name="underscore" unicode="_" horiz-adv-x="500" 
d="M0 -125v50h500v-50h-500z" />
    <glyph glyph-name="grave" unicode="`" horiz-adv-x="333" 
d="M222 505l-89 73q-22 18 -31.5 28t-9.5 24q0 12 9 20.5t23 8.5q16 0 28.5 -12t32.5 -46l56 -96h-19z" />
    <glyph glyph-name="a" unicode="a" 
d="M312 238q-17 -7 -26.5 -10.5t-32.5 -10.5q-17 -5 -38 -12.5t-40 -20.5t-31.5 -33.5t-12.5 -51.5q0 -38 19 -62t48 -24q23 0 43.5 11.5t36.5 31.5t25 46t9 55v81zM495 182q0 -191 -95 -191q-32 0 -51.5 25t-29.5 79q-25 -56 -57.5 -80t-83.5 -24q-25 0 -48 9t-40 24
t-27 35t-10 42q0 39 31 70q20 20 48.5 32t82.5 24q20 5 33 8.5t23 6.5t19 6.5t22 8.5v72q0 41 -24.5 62.5t-72.5 21.5q-16 0 -32 -4t-29 -10t-21 -14t-8 -16q0 -5 3.5 -9t13.5 -9q17 -9 24 -19t7 -25q0 -18 -12.5 -31t-29.5 -13q-20 0 -35 17t-15 40q0 24 12 44.5t32.5 35.5
t48.5 23.5t61 8.5q152 0 152 -136v-191q0 -37 9.5 -58.5t26.5 -21.5q26 0 38.5 31.5t17.5 104.5l2 20z" />
    <glyph glyph-name="b" unicode="b" horiz-adv-x="563" 
d="M307 420q-57 -1 -91 -59.5t-34 -153.5q0 -63 10.5 -101.5t34.5 -63.5q32 -34 75 -34q40 0 62.5 20.5t34 53t14 72t2.5 76.5q0 65 -11 103t-27 57.5t-35 24.5t-35 5zM108 602q0 27 -15.5 41.5t-43.5 14.5h-26v16q27 1 63.5 3.5t75.5 7.5h22v-356q45 109 130 109
q36 0 70.5 -18t61 -48t42.5 -68.5t16 -79.5q0 -45 -16.5 -87.5t-44 -74.5t-63 -51.5t-73.5 -19.5q-96 0 -151 115q-6 -11 -10.5 -21t-8 -22t-7 -28.5t-8.5 -39.5h-14v607z" />
    <glyph glyph-name="c" unicode="c" horiz-adv-x="448" 
d="M413 162q-2 -26 -4.5 -39.5t-8.5 -29.5q-22 -51 -64 -76t-84 -25q-39 0 -75 17.5t-63 47.5t-43 69t-16 82q0 45 16 85t43.5 71t63.5 49t76 18q29 0 56.5 -11t49 -29t34.5 -41t13 -47q0 -27 -14 -43.5t-37 -16.5q-19 0 -32 15t-13 38q0 15 6.5 25t23.5 18t17 19
q0 10 -9 20t-24 18t-33 13t-36 5q-62 0 -89.5 -47t-27.5 -151q0 -100 31 -153t89 -53q29 0 53.5 11.5t43 31.5t29.5 48.5t13 61.5z" />
    <glyph glyph-name="d" unicode="d" horiz-adv-x="563" 
d="M246 9q32 1 58.5 17t45.5 44.5t29 68t10 87.5q0 40 -10.5 75t-29.5 60.5t-44.5 40t-54.5 14.5q-42 0 -72 -31q-24 -25 -34 -65t-10 -114q0 -75 13.5 -117t45.5 -63q24 -17 53 -17zM283 675q72 0 114 3.5t43 3.5q5 1 7 1h4h14v-604q0 -64 58 -64h31v-15h-80
q-19 0 -40.5 -2.5t-33.5 -6.5h-10v121q-6 -12 -16.5 -32.5t-28.5 -40t-44.5 -34t-62.5 -14.5q-38 0 -72.5 18t-61 49t-42.5 71t-16 84q0 45 15.5 85t41.5 70t61.5 47.5t75.5 17.5q49 0 84.5 -25.5t64.5 -82.5v274q0 28 -16 44.5t-44 16.5h-46v15z" />
    <glyph glyph-name="e" unicode="e" horiz-adv-x="448" 
d="M306 249q17 0 23 7t6 27q0 63 -29 100t-78 37q-29 0 -51 -17t-35 -49q-5 -12 -8 -22.5t-5 -22t-3 -26t-2 -34.5h182zM426 162q-7 -28 -12 -43t-16 -33q-27 -46 -69 -70.5t-91 -24.5q-43 0 -79.5 17.5t-63.5 48.5t-42.5 72t-15.5 89q0 45 15 84.5t40.5 69t60.5 46.5t74 17
q38 0 72 -15.5t60 -42.5t42.5 -64.5t20.5 -82.5h-298q0 -25 1.5 -62.5t13 -72t37 -59.5t72.5 -25q60 0 103 40.5t59 110.5h16z" />
    <glyph glyph-name="f" unicode="f" horiz-adv-x="333" 
d="M205 391q-1 -46 -1 -91.5v-92.5v-90t0.5 -48.5t1.5 -22.5t3 -12q2 -5 8 -12t28 -7h33v-15h-225v15h36q22 0 31 11t9 38v327h-96v28h96v63q0 56 12 93t38 63q23 23 56 36.5t68 13.5q49 0 79 -19t30 -50q0 -21 -12 -34t-31 -13q-16 0 -29 12.5t-13 28.5q0 27 32 49
q-14 6 -23 7.5t-23 1.5q-36 0 -62 -15t-38 -44q-5 -13 -7.5 -29t-2.5 -42v-122h94v-28h-92z" />
    <glyph glyph-name="g" unicode="g" 
d="M238 127q98 0 98 145q0 148 -98 148q-47 0 -70.5 -37.5t-23.5 -109.5q0 -146 94 -146zM323 -38q-127 0 -184 -21.5t-57 -69.5q0 -45 46 -73t121 -28q43 0 80 9.5t64.5 27t43 40.5t15.5 50q0 17 -11 32t-29 22q-15 6 -36 8.5t-53 2.5zM162 -35q-58 12 -81 31t-23 55
q0 29 13 44.5t31.5 23t38.5 9t35 1.5q-107 55 -107 147q0 30 14.5 59t38.5 51.5t54.5 36t62.5 13.5q49 0 85.5 -27t59.5 -75v25.5t5 33.5t17.5 29.5t36.5 12.5q23 0 37 -13.5t14 -35.5q0 -40 -29 -40q-12 0 -20 9.5t-8 23.5q0 3 3 14t3 15q0 8 -11 8q-14 0 -23 -16t-9 -39
q0 -14 1.5 -24.5t3.5 -20.5t3.5 -20.5t1.5 -25.5q0 -34 -14 -63t-39.5 -50t-59.5 -33t-75 -12h-10.5t-15.5 0.5t-15.5 0.5h-10.5q-31 0 -48.5 -5t-26 -12t-10.5 -14t-2 -12q0 -36 66 -36q8 0 28.5 1t44 2.5t44.5 2.5t30 1q54 0 85 -9.5t57 -34.5q38 -35 38 -87
q0 -34 -16.5 -62.5t-46 -49.5t-70.5 -32.5t-90 -11.5q-46 0 -86 9t-69 24.5t-45.5 37t-16.5 46.5q0 32 22.5 51.5t82.5 36.5z" />
    <glyph glyph-name="h" unicode="h" horiz-adv-x="563" 
d="M467 64q0 -27 9 -38t31 -11h33v-15h-222v15h35q23 0 31.5 11t8.5 38v228q0 55 -20.5 86t-56.5 31q-27 0 -50.5 -19t-41 -51t-27.5 -75.5t-10 -92.5v-107q0 -27 9 -38t32 -11h32v-15h-222v15h35q23 0 31.5 11t8.5 38v538q0 25 -15 40.5t-39 15.5h-14v16q27 1 60 3t58 7h26
v-385q29 71 62.5 102t79.5 31q24 0 47 -9.5t40 -26.5t26.5 -36t14.5 -38.5t6.5 -37.5t1.5 -32v-188z" />
    <glyph glyph-name="i" unicode="i" horiz-adv-x="281" 
d="M133 569q-20 0 -34.5 14.5t-14.5 34.5t14.5 34.5t34.5 14.5t34.5 -14.5t14.5 -34.5t-14.5 -34.5t-34.5 -14.5zM172 429q-1 -52 -1 -103v-102v-99.5t0.5 -53.5t1.5 -24.5t3 -12.5q2 -5 8 -12t28 -7h32v-15h-221v15h35q23 0 31.5 11t8.5 38v295q0 21 -13 33t-37 12h-30v15
q29 0 52.5 1t34.5 2l54 7h13z" />
    <glyph glyph-name="j" unicode="j" horiz-adv-x="333" 
d="M177 571q-20 1 -34 14.5t-14 33.5t14 34.5t34 14.5t34.5 -14.5t14.5 -34.5q0 -18 -13.5 -33t-35.5 -15zM35 419q9 0 27 -0.5t38.5 -0.5t40 1t32.5 4q15 3 18 3h23v-516q0 -33 -9.5 -61.5t-25.5 -49.5t-37.5 -33.5t-45.5 -12.5q-17 0 -33 7t-28 19t-19 27.5t-7 32.5
q0 23 11 36.5t29 13.5q17 0 27 -11t10 -29q0 -20 -21 -38q-11 -11 -11 -17q0 -11 11 -18t26 -7q26 0 37 19t11 62v503q0 23 -12 37t-32 14h-60v15z" />
    <glyph glyph-name="k" unicode="k" horiz-adv-x="563" 
d="M189 134q0 -40 0.5 -63.5t4 -36t12 -16t23.5 -3.5h32v-15h-223v15h35q23 0 31.5 11t8.5 38v552q0 24 -11 34.5t-37 10.5h-33v15h55q21 0 45 3t35 7h22v-528l157 157q10 10 17.5 24.5t7.5 24.5q0 40 -76 40h-25v15h252v-15q-15 -1 -30 -4t-32 -11.5t-37 -23.5t-45 -40
l-62 -63l149 -204q32 -43 71 -43h16v-15h-241v15h51q22 0 22 18q0 10 -7 18l-115 158z" />
    <glyph glyph-name="l" unicode="l" horiz-adv-x="281" 
d="M101 598q0 55 -43 55h-37v16q26 0 50 1.5t33 2.5l50 6h23q-2 -133 -2 -224.5v-152.5v-156.5t1.5 -80t4 -31t6.5 -10.5q11 -9 30 -9h32v-15h-223v15h35q23 0 31.5 11t8.5 38v534z" />
    <glyph glyph-name="m" unicode="m" horiz-adv-x="844" 
d="M190 287q46 149 146 149q36 0 59 -15.5t36.5 -36t19.5 -42t9 -33.5q52 128 146 128q50 0 84 -34q15 -15 23 -32t12.5 -34t6 -32.5t2.5 -27.5v-213q0 -27 8.5 -38t31.5 -11h32v-15h-223v15h35q23 0 31.5 11t8.5 38v226q0 120 -70 120q-27 0 -50 -16t-40 -44.5t-26.5 -66.5
t-9.5 -82v-137q0 -27 8.5 -38t31.5 -11h32v-15h-223v15h35q23 0 31.5 11t8.5 38v228q0 63 -16 92t-50 29q-28 0 -51.5 -20t-41 -55t-27.5 -82.5t-10 -103.5v-88q0 -27 8.5 -38t31.5 -11h32v-15h-223v15h35q23 0 31.5 11t8.5 38v292q0 22 -12.5 35t-34.5 13h-31v15h38
q7 0 21 1t29 2.5t28.5 4t19.5 4.5h18v-144z" />
    <glyph glyph-name="n" unicode="n" horiz-adv-x="563" 
d="M186 304q15 41 36.5 66.5t44 39t42 18t30.5 4.5q24 0 49.5 -9.5t40.5 -24.5t24 -32.5t13.5 -35.5t5.5 -35.5t2 -32.5v-198q0 -27 9 -38t31 -11h33v-15h-224v15h35q23 0 31.5 11t8.5 38v223q0 63 -18 91.5t-56 28.5q-30 0 -55.5 -16t-44 -44.5t-29 -67.5t-10.5 -86v-129
q0 -27 8.5 -38t31.5 -11h32v-15h-223v15h35q23 0 31.5 11t8.5 38v296q0 44 -51 44h-27v15h34q3 0 12.5 0.5t21.5 1.5t22.5 2t14.5 1q14 2 21.5 3.5t8.5 1.5h20v-125z" />
    <glyph glyph-name="o" unicode="o" 
d="M250 -9q-43 2 -81 20.5t-66 48.5t-44.5 69.5t-16.5 82.5q0 44 17 85t46 72t66.5 49.5t78.5 18.5q46 0 85.5 -17.5t69 -47.5t46.5 -70.5t17 -87.5q0 -50 -20.5 -92t-52 -72t-70.5 -45.5t-75 -13.5zM252 7q70 0 101 49.5t31 161.5q0 203 -127 203q-69 0 -100 -50.5
t-31 -160.5q0 -203 126 -203z" />
    <glyph glyph-name="p" unicode="p" horiz-adv-x="563" 
d="M325 7q55 0 81.5 56.5t26.5 174.5q0 187 -108 187q-30 0 -55 -16t-43.5 -44.5t-28.5 -67.5t-10 -86q0 -42 10.5 -79.5t29 -65t43.5 -43.5t54 -16zM188 326q49 115 140 115q38 0 71.5 -18.5t59.5 -49t41 -71t15 -85.5q0 -46 -15 -87t-41 -72t-60 -49t-72 -18q-45 0 -78 28
t-61 88q-1 -39 -1 -78v-77v-78t0.5 -42.5t1.5 -20t3 -11.5q2 -5 7.5 -11.5t28.5 -6.5h32v-15h-223v15h35q23 0 31.5 11t8.5 38v526q0 52 -57 52h-45v15h25q13 0 32 1t38.5 3t37 4t27.5 3h18v-109z" />
    <glyph glyph-name="q" unicode="q" horiz-adv-x="563" 
d="M263 11q68 2 107 61t39 157q0 94 -37 145.5t-103 51.5q-43 0 -74 -31q-24 -24 -34.5 -67t-10.5 -118q0 -40 6.5 -76.5t20 -63.5t35 -43t51.5 -16zM480 437q-2 -133 -2 -222.5v-149.5v-154.5t1.5 -78.5t4 -31t6.5 -10q11 -9 30 -9h32v-15h-223v15h35q23 0 31.5 11t8.5 38
v273q-52 -113 -149 -113q-37 0 -71 19t-60 50.5t-42 72.5t-16 85q0 45 16.5 85.5t44 71.5t64.5 49t77 18q104 0 157 -120q28 35 39 115h16z" />
    <glyph glyph-name="r" unicode="r" horiz-adv-x="396" 
d="M122 359q0 21 -13 33t-37 12h-30v15q29 0 52.5 1t34.5 2l54 7h13v-114q9 21 19.5 42.5t23.5 38t31 27t42 10.5q36 0 58.5 -22t22.5 -57q0 -23 -12.5 -38.5t-29.5 -15.5q-18 0 -29.5 12.5t-11.5 32.5q0 22 23 42q11 10 11 15q0 15 -28 15q-15 0 -30.5 -6t-26.5 -17
q-21 -21 -33 -46.5t-18 -52.5t-7.5 -54t-2.5 -51v-126q0 -27 8.5 -38t31.5 -11h32v-15h-223v15h35q23 0 31.5 11t8.5 38v295z" />
    <glyph glyph-name="s" unicode="s" horiz-adv-x="396" 
d="M59 183q11 -47 25 -76.5t37 -52.5t52 -35t61 -12q38 0 64.5 21.5t26.5 52.5q0 35 -26.5 56.5t-97.5 43.5q-33 11 -54.5 19.5t-35 16t-22 14.5t-16.5 14q-28 28 -28 75q0 25 9 46.5t24.5 37.5t36.5 25t45 9q17 0 30.5 -2.5t27 -8.5t28.5 -16.5t34 -27.5q14 12 20.5 22.5
t11.5 27.5h16v-168h-14q-9 42 -19.5 65.5t-29.5 43.5q-46 48 -100 48q-37 0 -62 -20.5t-25 -51.5q0 -19 10.5 -32.5t28 -23.5t38.5 -17t42 -13q37 -11 67.5 -23.5t52 -29t33.5 -39t12 -53.5q0 -28 -10 -51.5t-28 -40.5t-43 -26.5t-54 -9.5q-74 0 -131 65q-6 -7 -9.5 -12
t-7.5 -11.5t-9 -16t-13 -25.5h-13v192h15z" />
    <glyph glyph-name="t" unicode="t" horiz-adv-x="396" 
d="M20 409q38 13 63.5 34t42 47.5t25.5 58t14 66.5h20v-196h139v-28h-140v-300q0 -32 16.5 -51t42.5 -19q51 0 76 50.5t26 156.5h14q0 -81 -11.5 -126t-39.5 -73q-35 -35 -87 -35q-54 0 -83.5 31t-29.5 88v278h-88v18z" />
    <glyph glyph-name="u" unicode="u" horiz-adv-x="563" 
d="M20 419q23 0 53.5 1t56.5 6q20 4 27 4h23v-329q0 -40 16.5 -62t47.5 -22q27 0 51.5 17t43 46t29.5 67t11 81v128q0 26 -12.5 37t-41.5 11h-51v15h60q17 0 40 2.5t45 7.5q4 1 6.5 1h3.5h26v-361q0 -29 12.5 -41.5t41.5 -12.5h20v-15h-102q-3 0 -7 -1h-15q-9 -1 -16.5 -1.5
t-9.5 -0.5v122q-58 -127 -155 -127q-25 0 -47 10t-38 27t-25 40.5t-9 51.5v243q0 17 -13 28.5t-30 11.5h-42v15z" />
    <glyph glyph-name="v" unicode="v" horiz-adv-x="563" 
d="M30 419h236v-15h-46q-33 0 -33 -21q0 -9 3 -18l110 -283l73 174q9 22 15 36.5t9 25t4 18t1 15.5q0 53 -73 53h-23v15h237v-15h-27q-36 0 -61 -26t-52 -91l-122 -296h-22l-139 354q-14 37 -26 48t-37 11h-27v15z" />
    <glyph glyph-name="w" unicode="w" horiz-adv-x="729" 
d="M17 419h211v-15h-28q-28 0 -28 -15q0 -4 1 -9t3 -11l99 -277l89 216l-23 72q-5 14 -13 19t-28 5h-28v15h225v-15h-46q-31 0 -31 -16q0 -9 3 -21l85 -270l87 217q5 13 9 31t4 26q0 33 -47 33h-16v15h168v-15q-39 -1 -60.5 -20t-41.5 -69l-128 -324h-20l-92 293l-120 -293
h-19l-118 330q-10 29 -17 45.5t-14.5 25t-17.5 10.5t-26 2h-22v15z" />
    <glyph glyph-name="x" unicode="x" horiz-adv-x="563" 
d="M43 419h226v-15h-33q-23 0 -23 -15q0 -8 9 -22l78 -110l69 84q15 18 15 34q0 29 -39 29h-32v15h203v-15h-20q-30 0 -61.5 -22.5t-71.5 -72.5l-53 -65l121 -172q25 -34 40 -45.5t37 -11.5h21v-15h-229v15h24q38 0 38 19q0 8 -8 18l-93 133l-68 -82q-28 -33 -28 -54
q0 -34 67 -34h19v-15h-216v15h7q26 0 62 24.5t70 66.5l77 92l-116 163q-17 24 -29.5 33.5t-28.5 9.5h-34v15z" />
    <glyph glyph-name="y" unicode="y" horiz-adv-x="563" 
d="M15 419h255v-15h-54q-15 0 -24.5 -7t-9.5 -19q0 -3 2 -11l126 -303l91 219q7 16 12.5 39t5.5 34q0 48 -59 48h-29v15h208v-15q-41 -1 -64.5 -22t-46.5 -76l-173 -416q-8 -19 -20.5 -42t-31 -43.5t-43 -34t-55.5 -13.5q-38 0 -64.5 23.5t-26.5 56.5q0 25 14.5 40.5
t37.5 15.5q20 0 34 -16.5t14 -39.5q0 -11 -3 -18t-11 -16q-5 -6 -6.5 -9t-1.5 -7q0 -13 21 -13q73 0 128 126l30 68l-151 364q-17 42 -32 57t-40 15h-33v15z" />
    <glyph glyph-name="z" unicode="z" horiz-adv-x="448" 
d="M60 419h341l-265 -402h113q41 0 72.5 19.5t49.5 56.5q9 17 13 32.5t8 44.5h16v-170h-367v8l260 395h-74q-67 0 -103.5 -36.5t-47.5 -114.5h-16v167z" />
    <glyph glyph-name="braceleft" unicode="{" horiz-adv-x="480" 
d="M360 -184q-30 5 -55 21t-43.5 40t-28.5 54.5t-10 64.5q0 14 2 34t5 38q4 22 6.5 41t2.5 30q0 38 -23 65.5t-60 33.5v19q37 7 60 34.5t23 65.5q0 10 -2.5 29.5t-6.5 40.5q-4 20 -5.5 37t-1.5 29q0 75 37 125.5t100 61.5v-16q-83 -26 -83 -110q0 -11 2.5 -31t6.5 -42
q4 -21 6 -39t2 -32q0 -52 -28.5 -96t-79.5 -67q51 -23 79.5 -65.5t28.5 -96.5q0 -14 -2 -31.5t-6 -38.5q-4 -22 -6.5 -42t-2.5 -31q0 -84 83 -110v-16z" />
    <glyph glyph-name="bar" unicode="|" horiz-adv-x="496" 
d="M226 750h43v-1000h-43v1000z" />
    <glyph glyph-name="braceright" unicode="}" horiz-adv-x="480" 
d="M120 -168q83 26 83 110q0 11 -2.5 31t-6.5 42q-4 21 -6 38.5t-2 31.5q0 54 28.5 96.5t79.5 65.5q-51 23 -79.5 67t-28.5 96q0 14 2 32t6 39q4 22 6.5 42t2.5 31q0 84 -83 110v16q63 -11 100 -61.5t37 -125.5q0 -12 -1.5 -29t-5.5 -37q-4 -21 -6.5 -40.5t-2.5 -29.5
q0 -38 23 -65.5t60 -34.5v-19q-37 -6 -60 -33.5t-23 -65.5q0 -11 2.5 -30t6.5 -41q3 -18 5 -38t2 -34q0 -34 -10 -64.5t-28.5 -54.5t-43.5 -40t-55 -21v16z" />
    <glyph glyph-name="asciitilde" unicode="~" horiz-adv-x="667" 
d="M73 255q2 35 10 57.5t26 41.5q15 16 35 25t40 9q8 0 18.5 -1t30.5 -6.5t53 -17.5t86 -35q44 -19 66.5 -25.5t41.5 -6.5q40 0 63.5 23.5t28.5 67.5h21q-2 -59 -34 -96t-82 -37q-22 0 -43 5t-60 21l-81 33q-46 18 -68 24.5t-41 6.5q-72 0 -90 -89h-21z" />
    <glyph glyph-name="exclamdown" unicode="&#xa1;" horiz-adv-x="281" 
d="M147 275v-80q0 -41 5 -90t17 -124q8 -53 11.5 -82t3.5 -49q0 -41 -11.5 -64.5t-31.5 -23.5q-21 0 -32.5 25t-11.5 70q0 15 2.5 40t9.5 67q12 75 17 129.5t5 102.5v79h16zM141 357q-20 1 -32.5 13.5t-12.5 31.5t13 32t32 13t32 -13t13 -32q0 -17 -12.5 -31t-32.5 -14z" />
    <glyph glyph-name="cent" unicode="&#xa2;" horiz-adv-x="448" 
d="M294 423q22 -7 41 -19.5t33.5 -28.5t23 -34.5t8.5 -37.5q0 -27 -14 -43.5t-37 -16.5q-19 0 -32 15t-13 38q0 15 6.5 25t23.5 18t17 19q0 14 -18.5 28t-44.5 21l-121 -348q31 -49 85 -49q29 0 53.5 11.5t43 31.5t29.5 48.5t13 61.5l15 -1q-2 -26 -4.5 -39.5t-8.5 -29.5
q-22 -51 -64 -76t-84 -25q-48 0 -92 28l-91 -261h-21l95 272q-39 29 -63.5 76t-24.5 101q0 45 16 85t43.5 71t63.5 49t76 18q15 0 28 -3l90 256h20zM269 411q-10 3 -20 3q-62 0 -89.5 -47t-27.5 -151q0 -82 22 -134z" />
    <glyph glyph-name="sterling" unicode="&#xa3;" 
d="M188 57q-14 7 -31.5 11.5t-30.5 4.5q-24 0 -42 -13.5t-18 -31.5q0 -13 11.5 -23t26.5 -10q23 0 42.5 14.5t41.5 47.5zM173 309q-10 40 -16 68.5t-6 57.5q0 53 13.5 97t37 75.5t56 49.5t71.5 18q26 0 49 -10t40.5 -27.5t27.5 -41t10 -49.5q0 -29 -19 -51t-45 -22
q-23 0 -37 12.5t-14 32.5t11.5 32.5t30.5 12.5q14 0 31 -14q8 -7 12 -7q12 0 12 19t-9 36t-24 30.5t-35 21.5t-42 8t-41.5 -9t-33.5 -24t-22.5 -35.5t-8.5 -43.5q0 -14 1 -27.5t3.5 -29t6.5 -35.5t10 -46q5 -18 8 -31.5t5 -24l4 -21t4 -22.5h114v-22h-113q1 -16 0.5 -35.5
t-5 -44.5t-15 -56.5t-29.5 -71.5q66 -10 104.5 -15.5t56.5 -5.5q40 0 61.5 15.5t30.5 50.5h14q-1 -31 -12 -57.5t-29 -46t-41.5 -30.5t-50.5 -11q-23 0 -42.5 7.5t-51.5 29.5q-19 13 -27.5 18.5t-25.5 14.5q-25 -37 -48 -53.5t-49 -16.5q-25 0 -40.5 14t-15.5 36
q0 29 23 45.5t65 16.5q11 0 21 -1t24 -4q8 -2 10 -2t7 -1q7 24 9 37.5t2 33.5q0 47 -11 80.5t-19 52.5h-107v22h99z" />
    <glyph glyph-name="currency" unicode="&#xa4;" horiz-adv-x="678" 
d="M339 475q-34 0 -63.5 -13.5t-51.5 -36t-34.5 -52.5t-12.5 -62q0 -33 12.5 -63t34.5 -53t51.5 -36.5t63.5 -13.5q35 0 64.5 13.5t52 36.5t35 53t12.5 63q0 32 -12.5 62t-35 52.5t-52 36t-64.5 13.5zM70 84l98 98q-20 25 -31.5 58t-11.5 71t12 72t31 57l-98 96l44 44
l96 -98q25 20 58 31.5t71 11.5q39 0 73 -12t56 -31l98 98l42 -44l-96 -96q19 -23 31 -57t12 -72q0 -39 -12 -72.5t-31 -56.5l96 -98l-42 -42l-98 96q-23 -19 -56.5 -31t-72.5 -12t-72.5 12t-56.5 31l-96 -96z" />
    <glyph glyph-name="yen" unicode="&#xa5;" horiz-adv-x="792" 
d="M90 236h257v87h-257v16h248l-178 285q-13 20 -26 28t-38 8h-46v16h339v-16h-79q-37 0 -37 -23q0 -5 2.5 -13t6.5 -13l162 -253l107 163q14 22 19 41t5 34q0 28 -19.5 46t-50.5 18h-65v16h303v-16q-24 0 -43.5 -5.5t-39 -21t-42 -43.5t-52.5 -74l-114 -177h251v-16h-255
v-87h255v-16h-255v-146q0 -26 12.5 -41.5t32.5 -15.5h110v-17h-406v16h103q21 0 34 15t13 40v149h-257v16z" />
    <glyph glyph-name="brokenbar" unicode="&#xa6;" horiz-adv-x="496" 
d="M226 175h43v-350h-43v350zM226 675h43v-350h-43v350z" />
    <glyph glyph-name="section" unicode="&#xa7;" horiz-adv-x="396" 
d="M262 113q26 0 42 15.5t16 39.5q0 23 -21 51.5t-50 53.5t-59.5 42t-50.5 17q-26 0 -43.5 -15.5t-17.5 -38.5q0 -22 15 -44q3 -4 20 -23.5t41.5 -41t53 -39t54.5 -17.5zM160 343q-16 16 -33 34t-30.5 38.5t-22 44.5t-8.5 52q0 31 11 57.5t30 46t44.5 30.5t54.5 11
q23 0 44 -8.5t36.5 -23t25 -33t9.5 -39.5q0 -23 -13 -37.5t-33 -14.5q-21 0 -35 13t-14 33q0 31 34 43q13 4 13 11q0 15 -21 27t-47 12q-21 0 -39 -7.5t-31.5 -21t-21.5 -31t-8 -37.5q0 -18 5.5 -34t18 -33t33.5 -36t52 -43q69 -52 103.5 -96t34.5 -102q0 -47 -24 -74.5
t-65 -27.5h-9.5t-13.5 1q48 -45 70.5 -85.5t22.5 -84.5q0 -33 -11.5 -61.5t-31 -49.5t-46 -33t-56.5 -12q-23 0 -43 8t-35 21.5t-24 32t-9 39.5q0 26 15.5 44t36.5 18t33.5 -13t12.5 -35q0 -34 -41 -43q-21 -4 -21 -14q0 -6 6.5 -13.5t17.5 -13.5t24.5 -10.5t27.5 -4.5
q20 0 39 8.5t33.5 22t23 31.5t8.5 37q0 21 -6.5 40t-21 39t-38 43.5t-58.5 51.5q-21 18 -43 37.5t-40 42.5t-29.5 48.5t-11.5 55.5q0 45 24.5 73.5t62.5 28.5q7 0 12.5 -1t15.5 -3z" />
    <glyph glyph-name="dieresis" unicode="&#xa8;" horiz-adv-x="333" 
d="M77 585q17 0 28.5 -11t11.5 -26q0 -17 -11 -29.5t-27 -12.5q-17 0 -29 12t-12 29q0 16 11.5 27t27.5 11zM256 584q16 0 27.5 -11.5t11.5 -27.5t-11 -27.5t-27 -11.5q-17 0 -29 11.5t-12 28.5q0 16 11.5 27t28.5 11z" />
    <glyph glyph-name="copyright" unicode="&#xa9;" horiz-adv-x="760" 
d="M551 554l10 -137h-19q-36 115 -148 115q-73 0 -115 -51t-42 -139q0 -97 42 -149t120 -52q40 0 76.5 15.5t60.5 43.5q2 3 6 8t9 12l18 -9q-68 -99 -187 -99q-48 0 -89.5 16.5t-71.5 45.5t-47.5 68.5t-17.5 85.5q0 48 18.5 89.5t51.5 72t77.5 47.5t96.5 17q12 0 20.5 -0.5
t18 -2.5t21.5 -5.5t30 -9.5q12 -4 18 -4q8 0 13 4.5t10 17.5h20zM380 677q72 0 135 -27t110 -74t74 -110t27 -135t-27 -135t-74 -110t-110 -74t-135 -27t-135 27t-110 74t-74 110t-27 135t27 135t74 110t110 74t135 27zM380 647q-66 0 -123.5 -25t-100 -67.5t-67.5 -100
t-25 -123.5t25 -123.5t67.5 -100t100 -67.5t123.5 -25t123.5 25t100 67.5t67.5 100t25 123.5t-25 123.5t-67.5 100t-100 67.5t-123.5 25z" />
    <glyph glyph-name="ordfeminine" unicode="&#xaa;" horiz-adv-x="396" 
d="M224 526q-33 -12 -56 -22.5t-37.5 -22.5t-21 -27.5t-6.5 -36.5q0 -70 45 -70q14 0 28 8.5t24.5 22.5t17 31.5t6.5 36.5v80zM224 600q0 61 -65 61q-59 0 -67 -35q21 -8 29 -16t8 -25t-11 -27.5t-28 -10.5q-20 0 -33.5 13.5t-13.5 33.5q0 18 9.5 34.5t26 28.5t39 19t47.5 7
q59 0 91 -22t32 -64v-192q0 -49 30 -49q29 0 29 68v53h19v-47q0 -52 -17.5 -79.5t-50.5 -27.5q-54 0 -66 79q-14 -42 -39 -61t-65 -19q-20 0 -37.5 6.5t-31 18t-21.5 26.5t-8 32q0 23 11 40t32 31.5t52 28t72 28.5q11 4 15 5.5l12 4.5v57z" />
    <glyph glyph-name="guillemotleft" unicode="&#xab;" horiz-adv-x="333" 
d="M286 48h-13l-101 173l100 179h15l-53 -182zM184 -3h-14l-147 222l144 225h15l-86 -223z" />
    <glyph glyph-name="logicalnot" unicode="&#xac;" horiz-adv-x="667" 
d="M71 461h524v-281h-42v238h-482v43z" />
    <glyph glyph-name="registered" unicode="&#xae;" horiz-adv-x="760" 
d="M380 677q72 0 135 -27t110 -74t74 -110t27 -135t-27 -135t-74 -110t-110 -74t-135 -27t-135 27t-110 74t-74 110t-27 135t27 135t74 110t110 74t135 27zM380 647q-66 0 -123.5 -25t-100 -67.5t-67.5 -100t-25 -123.5t25 -123.5t67.5 -100t100 -67.5t123.5 -25t123.5 25
t100 67.5t67.5 100t25 123.5t-25 123.5t-67.5 100t-100 67.5t-123.5 25zM188 544h188q66 0 106 -30t40 -80q0 -80 -109 -108l102 -145q17 -25 29 -33t30 -10v-16h-89l-144 197h-37v-151q0 -16 13 -23t44 -7v-16h-178v16q17 0 26 2.5t16 10.5q6 8 7 16.5t1 37.5v265
q0 29 -5.5 42.5t-39.5 13.5v18zM304 340h14q60 0 92.5 23t32.5 66q0 40 -28 66.5t-70 26.5q-11 0 -19 -1t-22 -6v-175z" />
    <glyph glyph-name="macron" unicode="&#xaf;" horiz-adv-x="333" 
d="M17 550h299v-45h-299v45z" />
    <glyph glyph-name="degree" unicode="&#xb0;" horiz-adv-x="399" 
d="M200 677q31 0 58 -12t47.5 -32t32 -47.5t11.5 -58.5t-11.5 -58.5t-32 -48t-47.5 -32.5t-58 -12t-58.5 12t-47.5 32.5t-32 48t-12 58.5t12 58.5t32 47.5t47.5 32t58.5 12zM199 636q-22 0 -41.5 -8.5t-34.5 -23.5t-23.5 -34.5t-8.5 -42.5q0 -22 8.5 -42t23 -35t34.5 -23.5
t42 -8.5q23 0 43 8.5t34.5 23.5t23 35t8.5 42q0 23 -8.5 42.5t-23 34.5t-34.5 23.5t-43 8.5z" />
    <glyph glyph-name="plusminus" unicode="&#xb1;" horiz-adv-x="667" 
d="M71 419h240v241h43v-241h242v-43h-242v-240h-43v240h-240v43zM71 25h525v-43h-525v43z" />
    <glyph glyph-name="twosuperior" unicode="&#xb2;" horiz-adv-x="333" 
d="M40 347q15 17 26.5 29.5t21 23t19 20l20.5 20.5q26 26 42.5 45.5t26.5 35t13.5 29.5t3.5 30q0 36 -19.5 58.5t-51.5 22.5q-35 0 -59 -19.5t-24 -48.5q0 -13 8 -13q3 0 8 4q6 5 11 7t15 2q13 -1 22 -11.5t9 -24.5q0 -15 -11.5 -26.5t-25.5 -11.5q-22 0 -35.5 18t-13.5 48
q0 45 33.5 72t90.5 27q26 0 47.5 -7.5t38 -21t25.5 -31t9 -38.5q0 -30 -20 -56.5t-76 -62.5q-21 -13 -34.5 -22.5t-23 -17.5t-17 -15t-15.5 -15h159q13 0 18.5 11t7.5 37h10l-9 -108h-250v10z" />
    <glyph glyph-name="threesuperior" unicode="&#xb3;" horiz-adv-x="333" 
d="M198 521q106 -21 107 -97q0 -42 -39 -68t-99 -26q-59 0 -91.5 20.5t-32.5 57.5q0 19 12.5 32t30.5 13q16 0 26 -9.5t10 -26.5q0 -13 -9 -22t-24 -11q-14 -1 -14 -9q0 -11 20.5 -21.5t43.5 -10.5q40 0 64.5 22.5t24.5 59.5q0 36 -17.5 60t-44.5 24q-3 0 -9 -1t-13.5 -2.5
t-13.5 -2.5t-9 -1q-6 0 -6 9q0 10 32 13q8 0 19.5 2t22.5 9t19 21.5t8 41.5q0 34 -16.5 53.5t-45.5 19.5q-26 0 -48.5 -10t-22.5 -23q0 -6 9 -6q41 -2 41 -35q0 -16 -9.5 -26t-25.5 -10q-18 0 -30 13.5t-12 34.5q0 33 31.5 54.5t80.5 21.5q54 0 88.5 -24.5t34.5 -62.5
q0 -31 -22.5 -49.5t-70.5 -27.5z" />
    <glyph glyph-name="acute" unicode="&#xb4;" horiz-adv-x="333" 
d="M112 505h-20l57 96q20 34 32.5 46t28.5 12q13 0 22 -8.5t9 -20.5q0 -14 -9.5 -24t-31.5 -28z" />
    <glyph glyph-name="mu" unicode="&#xb5;" horiz-adv-x="563" 
d="M289 419h60q17 0 40 2.5t45 7.5q4 1 6.5 1h3.5h26v-361q0 -29 12.5 -41.5t41.5 -12.5h20v-15h-102q-3 0 -7 -1h-15q-9 -1 -16.5 -1.5t-9.5 -0.5v122q-58 -127 -155 -127q-26 0 -47.5 9.5t-36.5 26.5q0 -19 0.5 -34t2 -30t5 -33t8.5 -43q6 -29 6 -48q0 -25 -12.5 -40.5
t-32.5 -15.5t-31.5 15t-11.5 41q0 10 2 21.5t5 25.5l13 52q3 13 5.5 38.5t3.5 53.5t1.5 53t0.5 37v243q0 17 -13 28.5t-30 11.5h-42v15q23 0 53.5 1t56.5 6q20 4 27 4h23v-329q0 -40 16.5 -62t47.5 -22q27 0 51.5 17t43 46t29.5 67t11 81v128q0 26 -12.5 37t-41.5 11h-51v15
z" />
    <glyph glyph-name="paragraph" unicode="&#xb6;" horiz-adv-x="453" 
d="M455 654q-26 -2 -39.5 -6.5t-18.5 -12.5q-3 -4 -4 -19.5t-1 -62.5v-616q0 -26 0.5 -46.5t1.5 -26.5q2 -16 19 -20t42 -8v-22h-101v832h-78v-832h-101v22q25 4 42 8t19 20q2 11 2 29v44v338q-73 0 -119.5 18t-73 47.5t-36.5 65.5t-10 72q0 35 12 70t43 63.5t84.5 46.5
t136.5 18h180v-22z" />
    <glyph glyph-name="periodcentered" unicode="&#xb7;" horiz-adv-x="281" 
d="M141 240q-23 0 -39.5 16t-16.5 39t16.5 39.5t39.5 16.5t39 -16.5t16 -39.5t-16 -39t-39 -16z" />
    <glyph glyph-name="cedilla" unicode="&#xb8;" horiz-adv-x="333" 
d="M198 7h30l-35 -50q64 -22 64 -73q0 -32 -30.5 -58t-75.5 -34q-20 -3 -34.5 -3.5t-39.5 -0.5v21q24 2 38 3.5t23.5 4t16 5.5t14.5 9q5 5 13.5 14.5t8.5 26.5q0 21 -15 30.5t-50 11.5z" />
    <glyph glyph-name="onesuperior" unicode="&#xb9;" horiz-adv-x="333" 
d="M78 676q31 0 54 0.5t54 5.5q8 1 11.5 1t14.5 1v-306q0 -29 29 -29h36v-12h-200v12h34q19 0 26.5 8t7.5 28v251q0 28 -33 28h-34v12z" />
    <glyph glyph-name="ordmasculine" unicode="&#xba;" horiz-adv-x="396" 
d="M200 321q-34 0 -64 14t-52 38t-34.5 56.5t-12.5 69.5q0 40 12.5 74t34 58.5t51.5 38.5t65 14q34 0 63 -14t50.5 -38t33.5 -57t12 -71q0 -39 -12.5 -72t-34 -58t-50.5 -39t-62 -14zM198 339q31 1 48.5 15.5t26.5 36.5t11 48t2 50q0 7 -0.5 20.5t-1 29t-1.5 30t-2 23.5
t-6.5 22t-15.5 24t-25 19t-36 8q-35 0 -58 -26q-17 -17 -23 -44t-6 -81q0 -6 0.5 -19t1 -28t1.5 -30t2 -24q2 -12 7.5 -25t16 -24t25 -18t33.5 -7z" />
    <glyph glyph-name="guillemotright" unicode="&#xbb;" horiz-adv-x="333" 
d="M47 393h13l101 -173l-100 -179h-15l53 182zM149 444h14l147 -222l-144 -225h-15l86 223z" />
    <glyph glyph-name="onequarter" unicode="&#xbc;" horiz-adv-x="1010" 
d="M675 241l-122 -150h122v150zM725 320l10 1v-230h81v-32h-81v-49q0 -26 28 -26h37v-11h-192v11h39q28 0 28 26v49h-136v34zM195 679q32 0 55 0.5t53 5.5q8 1 11.5 1t14.5 1v-307q0 -29 29 -29h36v-12h-200v12h34q19 0 26.5 8t7.5 28v252q0 28 -33 28h-34v12zM752 685h39
l-499 -719h-41z" />
    <glyph glyph-name="onehalf" unicode="&#xbd;" horiz-adv-x="1010" 
d="M173 677q32 0 55 0.5t53 5.5q8 1 11.5 1t14.5 1v-307q0 -29 29 -29h36v-12h-200v12h34q19 0 26.5 8t7.5 28v252q0 28 -33 28h-34v12zM579 -19q15 17 26 29.5t21 23t19 20t21 20.5q26 26 43 45.5t27 35t13.5 29.5t3.5 30q0 37 -19.5 59.5t-51.5 22.5q-36 0 -60 -20
t-24 -50q0 -12 8 -12q3 0 8 4q6 5 11 7t16 2q12 -1 21 -11.5t9 -24.5q0 -15 -11 -26.5t-26 -11.5q-22 0 -35.5 18t-13.5 48q0 46 34 72.5t91 26.5q51 0 85.5 -28t34.5 -70q0 -15 -4.5 -28.5t-15 -27.5t-29 -29.5t-47.5 -33.5q-21 -13 -34.5 -22.5t-23.5 -17.5t-17.5 -15
t-15.5 -15h159q13 0 18.5 11t7.5 37h10l-9 -108h-250v10zM730 685h40l-498 -721h-42z" />
    <glyph glyph-name="threequarters" unicode="&#xbe;" horiz-adv-x="1010" 
d="M681 242l-121 -151h121v151zM732 319l10 1v-230h81v-32h-81v-49q0 -26 28 -26h37v-11h-192v11h39q28 0 28 26v49h-135v34zM342 522q106 -21 106 -96q0 -42 -39 -68t-99 -26q-58 0 -90.5 20.5t-32.5 57.5q0 19 12.5 32t30.5 13q16 0 25.5 -10t9.5 -26q0 -13 -9 -22
t-23 -11q-14 -1 -14 -10q0 -11 20 -21t43 -10q40 0 64.5 22.5t24.5 58.5t-17.5 60t-44.5 24q-2 0 -8.5 -1t-13.5 -2.5t-13 -2.5t-9 -1q-6 0 -6 9q0 10 32 13q8 0 19.5 2t22.5 9t19 21.5t8 41.5q0 34 -16.5 53.5t-45.5 19.5q-26 0 -48.5 -10t-22.5 -23q0 -6 9 -6
q41 -2 41 -35q0 -16 -9.5 -26t-25.5 -10q-18 0 -30 13.5t-12 34.5q0 33 31.5 54.5t80.5 21.5q54 0 88.5 -24.5t34.5 -62.5q0 -59 -93 -77zM755 685h41l-498 -720h-42z" />
    <glyph glyph-name="questiondown" unicode="&#xbf;" horiz-adv-x="448" 
d="M312 -32q-1 -91 -30.5 -140t-83.5 -49q-22 0 -41 9.5t-32.5 26t-21.5 39.5t-8 49q0 43 18 85t61 101q30 42 42.5 67t12.5 46t-12 33.5t-32 12.5q-46 0 -58 -71h-15q6 42 25.5 64.5t48.5 22.5q33 0 54 -29.5t21 -75.5q0 -37 -15 -74.5t-52 -94.5q-32 -48 -44 -76t-12 -54
q0 -27 18.5 -46t44.5 -19q24 0 45.5 16.5t32.5 45.5q9 21 13 46.5t4 64.5h16zM195 355q-19 0 -32.5 13.5t-13.5 33.5q0 19 13.5 32.5t32.5 13.5q20 0 33.5 -13.5t13.5 -32.5q0 -20 -13.5 -33.5t-33.5 -13.5z" />
    <glyph glyph-name="Agrave" unicode="&#xc0;" horiz-adv-x="729" 
d="M342 578l-121 -327h231zM21 15q36 1 60 13.5t40.5 32t27 45t20.5 51.5l196 528h38l198 -581q11 -30 18.5 -47.5t17 -27t22 -12t32.5 -2.5h18v-15h-313v15h85q37 0 37 28q0 12 -5 29l-51 152h-251l-7 -18q-30 -85 -30 -113q0 -36 28.5 -57t79.5 -21h25v-15h-286v15z
M420 762l-89 73q-22 18 -31.5 28t-9.5 24q0 12 9 20.5t23 8.5q16 0 28.5 -12t32.5 -46l56 -96h-19z" />
    <glyph glyph-name="Aacute" unicode="&#xc1;" horiz-adv-x="729" 
d="M342 578l-121 -327h231zM21 15q36 1 60 13.5t40.5 32t27 45t20.5 51.5l196 528h38l198 -581q11 -30 18.5 -47.5t17 -27t22 -12t32.5 -2.5h18v-15h-313v15h85q37 0 37 28q0 12 -5 29l-51 152h-251l-7 -18q-30 -85 -30 -113q0 -36 28.5 -57t79.5 -21h25v-15h-286v15z
M310 762h-20l57 96q20 34 32.5 46t28.5 12q13 0 22 -8.5t9 -20.5q0 -14 -9.5 -24t-31.5 -28z" />
    <glyph glyph-name="Acircumflex" unicode="&#xc2;" horiz-adv-x="729" 
d="M342 578l-121 -327h231zM21 15q36 1 60 13.5t40.5 32t27 45t20.5 51.5l196 528h38l198 -581q11 -30 18.5 -47.5t17 -27t22 -12t32.5 -2.5h18v-15h-313v15h85q37 0 37 28q0 12 -5 29l-51 152h-251l-7 -18q-30 -85 -30 -113q0 -36 28.5 -57t79.5 -21h25v-15h-286v15z
M327 906h76l103 -145h-21l-121 95l-120 -95h-20z" />
    <glyph glyph-name="Atilde" unicode="&#xc3;" horiz-adv-x="729" 
d="M342 578l-121 -327h231zM21 15q36 1 60 13.5t40.5 32t27 45t20.5 51.5l196 528h38l198 -581q11 -30 18.5 -47.5t17 -27t22 -12t32.5 -2.5h18v-15h-313v15h85q37 0 37 28q0 12 -5 29l-51 152h-251l-7 -18q-30 -85 -30 -113q0 -36 28.5 -57t79.5 -21h25v-15h-286v15z
M408 825q26 -15 44 -15q19 0 32 16.5t15 42.5h16q-9 -107 -82 -107q-17 0 -32 5t-37 17l-42 23q-25 15 -44 15q-14 0 -22.5 -6t-14 -15t-7.5 -19.5t-4 -19.5h-15q6 107 88 107q13 0 31 -5.5t35 -15.5z" />
    <glyph glyph-name="Adieresis" unicode="&#xc4;" horiz-adv-x="729" 
d="M342 578l-121 -327h231zM21 15q36 1 60 13.5t40.5 32t27 45t20.5 51.5l196 528h38l198 -581q11 -30 18.5 -47.5t17 -27t22 -12t32.5 -2.5h18v-15h-313v15h85q37 0 37 28q0 12 -5 29l-51 152h-251l-7 -18q-30 -85 -30 -113q0 -36 28.5 -57t79.5 -21h25v-15h-286v15z
M275 842q17 0 28.5 -11t11.5 -26q0 -17 -11 -29.5t-27 -12.5q-17 0 -29 12t-12 29q0 16 11.5 27t27.5 11zM454 841q16 0 27.5 -11.5t11.5 -27.5t-11 -27.5t-27 -11.5q-17 0 -29 11.5t-12 28.5q0 16 11.5 27t28.5 11z" />
    <glyph glyph-name="Aring" unicode="&#xc5;" horiz-adv-x="729" 
d="M342 578l-121 -327h231zM21 15q36 1 60 13.5t40.5 32t27 45t20.5 51.5l196 528h38l198 -581q11 -30 18.5 -47.5t17 -27t22 -12t32.5 -2.5h18v-15h-313v15h85q37 0 37 28q0 12 -5 29l-51 152h-251l-7 -18q-30 -85 -30 -113q0 -36 28.5 -57t79.5 -21h25v-15h-286v15z
M363 946q39 0 66.5 -27.5t27.5 -66.5q0 -37 -26.5 -63t-64.5 -26q-39 0 -66 26t-27 64t26 65.5t64 27.5zM363 918q-26 0 -44 -19t-18 -46q0 -26 19 -44.5t45 -18.5t45 17.5t19 42.5q0 29 -19 48.5t-47 19.5z" />
    <glyph glyph-name="AE" unicode="&#xc6;" horiz-adv-x="1010" 
d="M498 315q0 8 0.5 34t0.5 61v74v73t-0.5 59t-1.5 31q-1 4 -2.5 8t-6.5 4q-6 0 -12 -9.5t-14 -24.5l-172 -310h208zM298 676h652l2 -210h-16q-25 103 -72.5 148t-129.5 45h-109q-27 0 -27 -29v-266h39q59 0 90.5 40.5t31.5 116.5v11h16v-362h-15q-4 62 -13 92.5t-31 51.5
q-17 16 -39.5 25t-46.5 9h-32v-300q0 -30 33 -30h90q62 0 112 32.5t81 92.5q19 36 26.5 72l12.5 60h15l-6 -275h-605v15h93q48 0 48 62v210h-224l-24 -42q-21 -36 -35 -62t-22.5 -45t-12 -32t-3.5 -24q0 -30 21.5 -48.5t55.5 -18.5h20v-15h-253v15q50 3 86.5 37t63.5 82
l255 460q5 8 8 17.5t3 16.5q0 33 -52 33h-87v15z" />
    <glyph glyph-name="Ccedilla" unicode="&#xc7;" horiz-adv-x="615" 
d="M282 -13q-50 12 -93.5 44t-75.5 77t-50.5 101t-18.5 117q0 87 27.5 154.5t69 113t91 69.5t92.5 24q41 0 71 -12.5t51.5 -30t36 -37t24.5 -34.5q23 33 35.5 57.5t21.5 56.5h15l6 -305h-15q-19 74 -49.5 135.5t-68.5 99.5q-23 26 -56 40.5t-65 14.5q-183 0 -183 -364
q0 -100 18 -161.5t60 -103.5q23 -23 52.5 -35.5t61.5 -12.5q66 0 123 39t86 105q14 32 18 60t6 48h15q-2 -22 -4 -38.5t-5 -29.5t-7.5 -25t-10.5 -26q-15 -34 -39 -61.5t-53 -47t-61 -30.5t-63 -11q-17 0 -35 3l-17 -24q64 -22 64 -73q0 -32 -30.5 -58t-75.5 -34
q-20 -3 -34.5 -3.5t-39.5 -0.5v21q24 2 38 3.5t23.5 4t16 5.5t14.5 9q5 5 13.5 14.5t8.5 26.5q0 21 -15 30.5t-50 11.5z" />
    <glyph glyph-name="Egrave" unicode="&#xc8;" horiz-adv-x="729" 
d="M37 676h621v-249h-15q-6 25 -18 64t-36 76t-63 64t-99 27h-126q-23 0 -23 -32v-273h35q149 0 153 175l15 -1v-375h-16q0 55 -9 84.5t-33 54.5q-42 45 -105 45h-40v-285q0 -19 7 -26.5t24 -7.5h129q56 0 102.5 31t78.5 89q17 30 25 59t13 53h16l-6 -249h-631v15h92
q23 0 36.5 15t13.5 43v531q0 27 -12.5 42t-36.5 15h-92v15zM420 762l-89 73q-22 18 -31.5 28t-9.5 24q0 12 9 20.5t23 8.5q16 0 28.5 -12t32.5 -46l56 -96h-19z" />
    <glyph glyph-name="Eacute" unicode="&#xc9;" horiz-adv-x="729" 
d="M37 676h621v-249h-15q-6 25 -18 64t-36 76t-63 64t-99 27h-126q-23 0 -23 -32v-273h35q149 0 153 175l15 -1v-375h-16q0 55 -9 84.5t-33 54.5q-42 45 -105 45h-40v-285q0 -19 7 -26.5t24 -7.5h129q56 0 102.5 31t78.5 89q17 30 25 59t13 53h16l-6 -249h-631v15h92
q23 0 36.5 15t13.5 43v531q0 27 -12.5 42t-36.5 15h-92v15zM340 762h-20l57 96q20 34 32.5 46t28.5 12q13 0 22 -8.5t9 -20.5q0 -14 -9.5 -24t-31.5 -28z" />
    <glyph glyph-name="Ecircumflex" unicode="&#xca;" horiz-adv-x="729" 
d="M37 676h621v-249h-15q-6 25 -18 64t-36 76t-63 64t-99 27h-126q-23 0 -23 -32v-273h35q149 0 153 175l15 -1v-375h-16q0 55 -9 84.5t-33 54.5q-42 45 -105 45h-40v-285q0 -19 7 -26.5t24 -7.5h129q56 0 102.5 31t78.5 89q17 30 25 59t13 53h16l-6 -249h-631v15h92
q23 0 36.5 15t13.5 43v531q0 27 -12.5 42t-36.5 15h-92v15zM367 906h76l103 -145h-21l-121 95l-120 -95h-20z" />
    <glyph glyph-name="Edieresis" unicode="&#xcb;" horiz-adv-x="729" 
d="M37 676h621v-249h-15q-6 25 -18 64t-36 76t-63 64t-99 27h-126q-23 0 -23 -32v-273h35q149 0 153 175l15 -1v-375h-16q0 55 -9 84.5t-33 54.5q-42 45 -105 45h-40v-285q0 -19 7 -26.5t24 -7.5h129q56 0 102.5 31t78.5 89q17 30 25 59t13 53h16l-6 -249h-631v15h92
q23 0 36.5 15t13.5 43v531q0 27 -12.5 42t-36.5 15h-92v15zM315 842q17 0 28.5 -11t11.5 -26q0 -17 -11 -29.5t-27 -12.5q-17 0 -29 12t-12 29q0 16 11.5 27t27.5 11zM494 841q16 0 27.5 -11.5t11.5 -27.5t-11 -27.5t-27 -11.5q-17 0 -29 11.5t-12 28.5q0 16 11.5 27
t28.5 11z" />
    <glyph glyph-name="Igrave" unicode="&#xcc;" horiz-adv-x="448" 
d="M47 15h85q46 0 50 58v530q0 58 -49 58h-86v15h354v-15h-69q-23 0 -36.5 -15t-13.5 -43v-530q0 -28 13.5 -43t36.5 -15h69v-15h-354v15zM230 762l-89 73q-22 18 -31.5 28t-9.5 24q0 12 9 20.5t23 8.5q16 0 28.5 -12t32.5 -46l56 -96h-19z" />
    <glyph glyph-name="Iacute" unicode="&#xcd;" horiz-adv-x="448" 
d="M47 15h85q46 0 50 58v530q0 58 -49 58h-86v15h354v-15h-69q-23 0 -36.5 -15t-13.5 -43v-530q0 -28 13.5 -43t36.5 -15h69v-15h-354v15zM220 762h-20l57 96q20 34 32.5 46t28.5 12q13 0 22 -8.5t9 -20.5q0 -14 -9.5 -24t-31.5 -28z" />
    <glyph glyph-name="Icircumflex" unicode="&#xce;" horiz-adv-x="448" 
d="M47 15h85q46 0 50 58v530q0 58 -49 58h-86v15h354v-15h-69q-23 0 -36.5 -15t-13.5 -43v-530q0 -28 13.5 -43t36.5 -15h69v-15h-354v15zM187 906h76l103 -145h-21l-121 95l-120 -95h-20z" />
    <glyph glyph-name="Idieresis" unicode="&#xcf;" horiz-adv-x="448" 
d="M47 15h85q46 0 50 58v530q0 58 -49 58h-86v15h354v-15h-69q-23 0 -36.5 -15t-13.5 -43v-530q0 -28 13.5 -43t36.5 -15h69v-15h-354v15zM135 842q17 0 28.5 -11t11.5 -26q0 -17 -11 -29.5t-27 -12.5q-17 0 -29 12t-12 29q0 16 11.5 27t27.5 11zM314 841q16 0 27.5 -11.5
t11.5 -27.5t-11 -27.5t-27 -11.5q-17 0 -29 11.5t-12 28.5q0 16 11.5 27t28.5 11z" />
    <glyph glyph-name="Eth" unicode="&#xd0;" horiz-adv-x="792" 
d="M292 328v-274q0 -37 29 -37h95q52 0 93 21.5t70 61.5t44.5 97t15.5 129q0 105 -17.5 170.5t-57.5 107.5q-52 54 -141 54h-104q-27 0 -27 -29v-272h165v-29h-165zM45 327v30h146v246q0 58 -49 58h-97v15h374q68 0 129.5 -27.5t107.5 -75t73 -110t27 -131.5q0 -67 -28 -127
t-75.5 -105.5t-110.5 -72.5t-133 -27h-363v15h95q50 0 50 58v255z" />
    <glyph glyph-name="Ntilde" unicode="&#xd1;" horiz-adv-x="792" 
d="M25 676h223l376 -546v324q0 61 -13 102.5t-39 67.5q-17 16 -44.5 26.5t-54.5 10.5h-19v15h315v-15h-21q-52 0 -80 -28q-9 -9 -15 -21t-9.5 -31.5t-4.5 -50t-1 -76.5v-477h-30l-417 606v-365q0 -203 141 -203h33v-15h-342v15h21q25 0 51 9.5t42 24.5q30 29 35 70.5t5 99.5
v278q0 164 -115 164h-37v15zM440 825q26 -15 44 -15q19 0 32 16.5t15 42.5h16q-9 -107 -82 -107q-17 0 -32 5t-37 17l-42 23q-25 15 -44 15q-14 0 -22.5 -6t-14 -15t-7.5 -19.5t-4 -19.5h-15q6 107 88 107q13 0 31 -5.5t35 -15.5z" />
    <glyph glyph-name="Ograve" unicode="&#xd2;" horiz-adv-x="729" 
d="M365 -22q-62 0 -118 29t-98 77.5t-67 113t-25 136.5q0 62 23 124t63.5 112t96.5 81.5t122 31.5q68 0 125 -31t98 -80.5t64.5 -112t23.5 -125.5q0 -71 -25 -135.5t-67 -113.5t-98 -78t-118 -29zM368 -5q35 0 69 13t56 35q34 35 48.5 96t14.5 167q0 22 -1 51t-2.5 57.5
t-3.5 54t-4 39.5q-11 78 -60.5 118.5t-121.5 40.5q-67 0 -104.5 -29.5t-56.5 -73.5t-23.5 -96.5t-4.5 -98.5q0 -10 0.5 -36.5t2 -58.5t3.5 -65.5t5 -58.5q3 -23 14 -50t32.5 -50.5t55 -39t81.5 -15.5zM380 762l-89 73q-22 18 -31.5 28t-9.5 24q0 12 9 20.5t23 8.5
q16 0 28.5 -12t32.5 -46l56 -96h-19z" />
    <glyph glyph-name="Oacute" unicode="&#xd3;" horiz-adv-x="729" 
d="M365 -22q-62 0 -118 29t-98 77.5t-67 113t-25 136.5q0 62 23 124t63.5 112t96.5 81.5t122 31.5q68 0 125 -31t98 -80.5t64.5 -112t23.5 -125.5q0 -71 -25 -135.5t-67 -113.5t-98 -78t-118 -29zM368 -5q35 0 69 13t56 35q34 35 48.5 96t14.5 167q0 22 -1 51t-2.5 57.5
t-3.5 54t-4 39.5q-11 78 -60.5 118.5t-121.5 40.5q-67 0 -104.5 -29.5t-56.5 -73.5t-23.5 -96.5t-4.5 -98.5q0 -10 0.5 -36.5t2 -58.5t3.5 -65.5t5 -58.5q3 -23 14 -50t32.5 -50.5t55 -39t81.5 -15.5zM350 762h-20l57 96q20 34 32.5 46t28.5 12q13 0 22 -8.5t9 -20.5
q0 -14 -9.5 -24t-31.5 -28z" />
    <glyph glyph-name="Ocircumflex" unicode="&#xd4;" horiz-adv-x="729" 
d="M365 -22q-62 0 -118 29t-98 77.5t-67 113t-25 136.5q0 62 23 124t63.5 112t96.5 81.5t122 31.5q68 0 125 -31t98 -80.5t64.5 -112t23.5 -125.5q0 -71 -25 -135.5t-67 -113.5t-98 -78t-118 -29zM368 -5q35 0 69 13t56 35q34 35 48.5 96t14.5 167q0 22 -1 51t-2.5 57.5
t-3.5 54t-4 39.5q-11 78 -60.5 118.5t-121.5 40.5q-67 0 -104.5 -29.5t-56.5 -73.5t-23.5 -96.5t-4.5 -98.5q0 -10 0.5 -36.5t2 -58.5t3.5 -65.5t5 -58.5q3 -23 14 -50t32.5 -50.5t55 -39t81.5 -15.5zM327 906h76l103 -145h-21l-121 95l-120 -95h-20z" />
    <glyph glyph-name="Otilde" unicode="&#xd5;" horiz-adv-x="729" 
d="M365 -22q-62 0 -118 29t-98 77.5t-67 113t-25 136.5q0 62 23 124t63.5 112t96.5 81.5t122 31.5q68 0 125 -31t98 -80.5t64.5 -112t23.5 -125.5q0 -71 -25 -135.5t-67 -113.5t-98 -78t-118 -29zM368 -5q35 0 69 13t56 35q34 35 48.5 96t14.5 167q0 22 -1 51t-2.5 57.5
t-3.5 54t-4 39.5q-11 78 -60.5 118.5t-121.5 40.5q-67 0 -104.5 -29.5t-56.5 -73.5t-23.5 -96.5t-4.5 -98.5q0 -10 0.5 -36.5t2 -58.5t3.5 -65.5t5 -58.5q3 -23 14 -50t32.5 -50.5t55 -39t81.5 -15.5zM408 825q26 -15 44 -15q19 0 32 16.5t15 42.5h16q-9 -107 -82 -107
q-17 0 -32 5t-37 17l-42 23q-25 15 -44 15q-14 0 -22.5 -6t-14 -15t-7.5 -19.5t-4 -19.5h-15q6 107 88 107q13 0 31 -5.5t35 -15.5z" />
    <glyph glyph-name="Odieresis" unicode="&#xd6;" horiz-adv-x="729" 
d="M365 -22q-62 0 -118 29t-98 77.5t-67 113t-25 136.5q0 62 23 124t63.5 112t96.5 81.5t122 31.5q68 0 125 -31t98 -80.5t64.5 -112t23.5 -125.5q0 -71 -25 -135.5t-67 -113.5t-98 -78t-118 -29zM368 -5q35 0 69 13t56 35q34 35 48.5 96t14.5 167q0 22 -1 51t-2.5 57.5
t-3.5 54t-4 39.5q-11 78 -60.5 118.5t-121.5 40.5q-67 0 -104.5 -29.5t-56.5 -73.5t-23.5 -96.5t-4.5 -98.5q0 -10 0.5 -36.5t2 -58.5t3.5 -65.5t5 -58.5q3 -23 14 -50t32.5 -50.5t55 -39t81.5 -15.5zM275 842q17 0 28.5 -11t11.5 -26q0 -17 -11 -29.5t-27 -12.5
q-17 0 -29 12t-12 29q0 16 11.5 27t27.5 11zM454 841q16 0 27.5 -11.5t11.5 -27.5t-11 -27.5t-27 -11.5q-17 0 -29 11.5t-12 28.5q0 16 11.5 27t28.5 11z" />
    <glyph glyph-name="multiply" unicode="&#xd7;" horiz-adv-x="668" 
d="M97 528l29 30l208 -208l208 208l30 -30l-207 -209l205 -205l-30 -31l-206 206l-207 -206l-30 31l207 205z" />
    <glyph glyph-name="Oslash" unicode="&#xd8;" horiz-adv-x="729" 
d="M192 123q6 -21 18.5 -44t33.5 -41.5t51.5 -30.5t72.5 -12q35 0 69 13t56 35q34 35 48.5 96t14.5 167q0 22 -1 51t-2.5 57.5t-3.5 54t-4 39.5q0 4 -2 10zM539 538q-17 63 -64 96t-112 33q-67 0 -104.5 -29.5t-56.5 -73.5t-23.5 -96.5t-4.5 -98.5q0 -10 0.5 -36.5t2 -58.5
t3.5 -65.5t5 -58.5q0 -2 2 -8zM587 568q42 -49 64 -110t22 -124q0 -71 -25 -135.5t-67 -113.5t-98 -78t-118 -29q-61 0 -115 27t-96 75l-101 -113l-13 10l103 115q-40 48 -63 110.5t-23 131.5q0 62 23 124t63.5 112t96.5 81.5t122 31.5q64 0 118.5 -27.5t96.5 -74.5l101 113
l11 -11z" />
    <glyph glyph-name="Ugrave" unicode="&#xd9;" horiz-adv-x="792" 
d="M771 661q-61 -3 -89.5 -40t-28.5 -115v-254q0 -60 -18.5 -110t-52.5 -86.5t-80.5 -56.5t-102.5 -20q-54 0 -103.5 19t-81.5 52q-22 22 -34 46t-18.5 48.5t-8 48t-2.5 44.5v366q0 58 -49 58h-80v15h364v-15h-87q-26 0 -37 -14.5t-11 -47.5v-383q0 -59 11 -97t35 -65
q47 -50 127 -50q48 0 87 18t67 51t43.5 79.5t15.5 102.5v228q0 48 -10 84t-29 56q-15 17 -41 27.5t-49 10.5h-24v15h287v-15zM452 762l-89 73q-22 18 -31.5 28t-9.5 24q0 12 9 20.5t23 8.5q16 0 28.5 -12t32.5 -46l56 -96h-19z" />
    <glyph glyph-name="Uacute" unicode="&#xda;" horiz-adv-x="792" 
d="M771 661q-61 -3 -89.5 -40t-28.5 -115v-254q0 -60 -18.5 -110t-52.5 -86.5t-80.5 -56.5t-102.5 -20q-54 0 -103.5 19t-81.5 52q-22 22 -34 46t-18.5 48.5t-8 48t-2.5 44.5v366q0 58 -49 58h-80v15h364v-15h-87q-26 0 -37 -14.5t-11 -47.5v-383q0 -59 11 -97t35 -65
q47 -50 127 -50q48 0 87 18t67 51t43.5 79.5t15.5 102.5v228q0 48 -10 84t-29 56q-15 17 -41 27.5t-49 10.5h-24v15h287v-15zM372 762h-20l57 96q20 34 32.5 46t28.5 12q13 0 22 -8.5t9 -20.5q0 -14 -9.5 -24t-31.5 -28z" />
    <glyph glyph-name="Ucircumflex" unicode="&#xdb;" horiz-adv-x="792" 
d="M771 661q-61 -3 -89.5 -40t-28.5 -115v-254q0 -60 -18.5 -110t-52.5 -86.5t-80.5 -56.5t-102.5 -20q-54 0 -103.5 19t-81.5 52q-22 22 -34 46t-18.5 48.5t-8 48t-2.5 44.5v366q0 58 -49 58h-80v15h364v-15h-87q-26 0 -37 -14.5t-11 -47.5v-383q0 -59 11 -97t35 -65
q47 -50 127 -50q48 0 87 18t67 51t43.5 79.5t15.5 102.5v228q0 48 -10 84t-29 56q-15 17 -41 27.5t-49 10.5h-24v15h287v-15zM384 906h76l103 -145h-21l-121 95l-120 -95h-20z" />
    <glyph glyph-name="Udieresis" unicode="&#xdc;" horiz-adv-x="792" 
d="M771 661q-61 -3 -89.5 -40t-28.5 -115v-254q0 -60 -18.5 -110t-52.5 -86.5t-80.5 -56.5t-102.5 -20q-54 0 -103.5 19t-81.5 52q-22 22 -34 46t-18.5 48.5t-8 48t-2.5 44.5v366q0 58 -49 58h-80v15h364v-15h-87q-26 0 -37 -14.5t-11 -47.5v-383q0 -59 11 -97t35 -65
q47 -50 127 -50q48 0 87 18t67 51t43.5 79.5t15.5 102.5v228q0 48 -10 84t-29 56q-15 17 -41 27.5t-49 10.5h-24v15h287v-15zM332 842q17 0 28.5 -11t11.5 -26q0 -17 -11 -29.5t-27 -12.5q-17 0 -29 12t-12 29q0 16 11.5 27t27.5 11zM511 841q16 0 27.5 -11.5t11.5 -27.5
t-11 -27.5t-27 -11.5q-17 0 -29 11.5t-12 28.5q0 16 11.5 27t28.5 11z" />
    <glyph glyph-name="Yacute" unicode="&#xdd;" horiz-adv-x="792" 
d="M458 251q-2 -26 -2 -50.5v-50.5q0 -36 1 -61.5t5.5 -42t15.5 -24t30 -7.5h68v-15h-354v15h85q23 0 36.5 15t13.5 43v169l-209 385q-18 34 -62 34h-47v15h339v-15h-82q-34 0 -34 -23q0 -12 8 -26l182 -335l133 251q8 17 14 36t6 32q0 31 -22 48t-60 17h-54v15h303v-15
q-37 -1 -62 -11t-46 -30.5t-40.5 -54t-44.5 -81.5zM392 762h-20l57 96q20 34 32.5 46t28.5 12q13 0 22 -8.5t9 -20.5q0 -14 -9.5 -24t-31.5 -28z" />
    <glyph glyph-name="Thorn" unicode="&#xde;" horiz-adv-x="677" 
d="M279 501v-328h109q154 0 154 162q0 166 -158 166h-105zM41 16h84q23 0 37.5 13t14.5 33v542q0 30 -12 43t-41 13h-82v16h360v-16h-81q-42 0 -42 -59v-84h92q65 0 118 -13.5t90 -38.5t57 -60t20 -79q0 -35 -20 -65.5t-55 -53.5t-81 -36.5t-99 -13.5h-122v-90
q0 -24 15 -37.5t42 -13.5h99v-16h-394v16z" />
    <glyph glyph-name="germandbls" unicode="&#xdf;" horiz-adv-x="563" 
d="M32 17h37q17 0 24 7t7 25v401q0 48 4 78.5t14 54.5q23 54 69 76.5t97 22.5q41 0 75.5 -12t60.5 -33t40.5 -50t14.5 -63q0 -98 -143 -140q33 -7 50 -13.5t37 -17.5q52 -32 70.5 -77t18.5 -92q0 -39 -12.5 -74t-34 -61.5t-49.5 -42t-59 -15.5q-18 0 -35 6.5t-29.5 18
t-20 26.5t-7.5 32q0 23 14 39t35 16q19 0 32 -13t13 -31q0 -20 -18 -41l-7.5 -10.5t-2.5 -8.5q0 -8 7.5 -13t18.5 -5q34 0 47.5 32t13.5 112q0 45 -2 76.5t-6.5 54t-12 37.5t-18.5 25q-14 13 -37.5 21t-46.5 8h-26v15q124 4 124 130q0 72 -28.5 110t-82.5 38
q-50 0 -76 -32.5t-26 -92.5v-495q0 -29 26 -29h47v-17h-217v17z" />
    <glyph glyph-name="agrave" unicode="&#xe0;" 
d="M312 238q-17 -7 -26.5 -10.5t-32.5 -10.5q-17 -5 -38 -12.5t-40 -20.5t-31.5 -33.5t-12.5 -51.5q0 -38 19 -62t48 -24q23 0 43.5 11.5t36.5 31.5t25 46t9 55v81zM495 182q0 -191 -95 -191q-32 0 -51.5 25t-29.5 79q-25 -56 -57.5 -80t-83.5 -24q-25 0 -48 9t-40 24
t-27 35t-10 42q0 39 31 70q20 20 48.5 32t82.5 24q20 5 33 8.5t23 6.5t19 6.5t22 8.5v72q0 41 -24.5 62.5t-72.5 21.5q-16 0 -32 -4t-29 -10t-21 -14t-8 -16q0 -5 3.5 -9t13.5 -9q17 -9 24 -19t7 -25q0 -18 -12.5 -31t-29.5 -13q-20 0 -35 17t-15 40q0 24 12 44.5t32.5 35.5
t48.5 23.5t61 8.5q152 0 152 -136v-191q0 -37 9.5 -58.5t26.5 -21.5q26 0 38.5 31.5t17.5 104.5l2 20zM286 505l-89 73q-22 18 -31.5 28t-9.5 24q0 12 9 20.5t23 8.5q16 0 28.5 -12t32.5 -46l56 -96h-19z" />
    <glyph glyph-name="aacute" unicode="&#xe1;" 
d="M312 238q-17 -7 -26.5 -10.5t-32.5 -10.5q-17 -5 -38 -12.5t-40 -20.5t-31.5 -33.5t-12.5 -51.5q0 -38 19 -62t48 -24q23 0 43.5 11.5t36.5 31.5t25 46t9 55v81zM495 182q0 -191 -95 -191q-32 0 -51.5 25t-29.5 79q-25 -56 -57.5 -80t-83.5 -24q-25 0 -48 9t-40 24
t-27 35t-10 42q0 39 31 70q20 20 48.5 32t82.5 24q20 5 33 8.5t23 6.5t19 6.5t22 8.5v72q0 41 -24.5 62.5t-72.5 21.5q-16 0 -32 -4t-29 -10t-21 -14t-8 -16q0 -5 3.5 -9t13.5 -9q17 -9 24 -19t7 -25q0 -18 -12.5 -31t-29.5 -13q-20 0 -35 17t-15 40q0 24 12 44.5t32.5 35.5
t48.5 23.5t61 8.5q152 0 152 -136v-191q0 -37 9.5 -58.5t26.5 -21.5q26 0 38.5 31.5t17.5 104.5l2 20zM226 505h-20l57 96q20 34 32.5 46t28.5 12q13 0 22 -8.5t9 -20.5q0 -14 -9.5 -24t-31.5 -28z" />
    <glyph glyph-name="acircumflex" unicode="&#xe2;" 
d="M312 238q-17 -7 -26.5 -10.5t-32.5 -10.5q-17 -5 -38 -12.5t-40 -20.5t-31.5 -33.5t-12.5 -51.5q0 -38 19 -62t48 -24q23 0 43.5 11.5t36.5 31.5t25 46t9 55v81zM495 182q0 -191 -95 -191q-32 0 -51.5 25t-29.5 79q-25 -56 -57.5 -80t-83.5 -24q-25 0 -48 9t-40 24
t-27 35t-10 42q0 39 31 70q20 20 48.5 32t82.5 24q20 5 33 8.5t23 6.5t19 6.5t22 8.5v72q0 41 -24.5 62.5t-72.5 21.5q-16 0 -32 -4t-29 -10t-21 -14t-8 -16q0 -5 3.5 -9t13.5 -9q17 -9 24 -19t7 -25q0 -18 -12.5 -31t-29.5 -13q-20 0 -35 17t-15 40q0 24 12 44.5t32.5 35.5
t48.5 23.5t61 8.5q152 0 152 -136v-191q0 -37 9.5 -58.5t26.5 -21.5q26 0 38.5 31.5t17.5 104.5l2 20zM218 649h76l103 -145h-21l-121 95l-120 -95h-20z" />
    <glyph glyph-name="atilde" unicode="&#xe3;" 
d="M312 238q-17 -7 -26.5 -10.5t-32.5 -10.5q-17 -5 -38 -12.5t-40 -20.5t-31.5 -33.5t-12.5 -51.5q0 -38 19 -62t48 -24q23 0 43.5 11.5t36.5 31.5t25 46t9 55v81zM495 182q0 -191 -95 -191q-32 0 -51.5 25t-29.5 79q-25 -56 -57.5 -80t-83.5 -24q-25 0 -48 9t-40 24
t-27 35t-10 42q0 39 31 70q20 20 48.5 32t82.5 24q20 5 33 8.5t23 6.5t19 6.5t22 8.5v72q0 41 -24.5 62.5t-72.5 21.5q-16 0 -32 -4t-29 -10t-21 -14t-8 -16q0 -5 3.5 -9t13.5 -9q17 -9 24 -19t7 -25q0 -18 -12.5 -31t-29.5 -13q-20 0 -35 17t-15 40q0 24 12 44.5t32.5 35.5
t48.5 23.5t61 8.5q152 0 152 -136v-191q0 -37 9.5 -58.5t26.5 -21.5q26 0 38.5 31.5t17.5 104.5l2 20zM299 568q26 -15 44 -15q19 0 32 16.5t15 42.5h16q-9 -107 -82 -107q-17 0 -32 5t-37 17l-42 23q-25 15 -44 15q-14 0 -22.5 -6t-14 -15t-7.5 -19.5t-4 -19.5h-15
q6 107 88 107q13 0 31 -5.5t35 -15.5z" />
    <glyph glyph-name="adieresis" unicode="&#xe4;" 
d="M312 238q-17 -7 -26.5 -10.5t-32.5 -10.5q-17 -5 -38 -12.5t-40 -20.5t-31.5 -33.5t-12.5 -51.5q0 -38 19 -62t48 -24q23 0 43.5 11.5t36.5 31.5t25 46t9 55v81zM495 182q0 -191 -95 -191q-32 0 -51.5 25t-29.5 79q-25 -56 -57.5 -80t-83.5 -24q-25 0 -48 9t-40 24
t-27 35t-10 42q0 39 31 70q20 20 48.5 32t82.5 24q20 5 33 8.5t23 6.5t19 6.5t22 8.5v72q0 41 -24.5 62.5t-72.5 21.5q-16 0 -32 -4t-29 -10t-21 -14t-8 -16q0 -5 3.5 -9t13.5 -9q17 -9 24 -19t7 -25q0 -18 -12.5 -31t-29.5 -13q-20 0 -35 17t-15 40q0 24 12 44.5t32.5 35.5
t48.5 23.5t61 8.5q152 0 152 -136v-191q0 -37 9.5 -58.5t26.5 -21.5q26 0 38.5 31.5t17.5 104.5l2 20zM166 585q17 0 28.5 -11t11.5 -26q0 -17 -11 -29.5t-27 -12.5q-17 0 -29 12t-12 29q0 16 11.5 27t27.5 11zM345 584q16 0 27.5 -11.5t11.5 -27.5t-11 -27.5t-27 -11.5
q-17 0 -29 11.5t-12 28.5q0 16 11.5 27t28.5 11z" />
    <glyph glyph-name="aring" unicode="&#xe5;" 
d="M312 238q-17 -7 -26.5 -10.5t-32.5 -10.5q-17 -5 -38 -12.5t-40 -20.5t-31.5 -33.5t-12.5 -51.5q0 -38 19 -62t48 -24q23 0 43.5 11.5t36.5 31.5t25 46t9 55v81zM495 182q0 -191 -95 -191q-32 0 -51.5 25t-29.5 79q-25 -56 -57.5 -80t-83.5 -24q-25 0 -48 9t-40 24
t-27 35t-10 42q0 39 31 70q20 20 48.5 32t82.5 24q20 5 33 8.5t23 6.5t19 6.5t22 8.5v72q0 41 -24.5 62.5t-72.5 21.5q-16 0 -32 -4t-29 -10t-21 -14t-8 -16q0 -5 3.5 -9t13.5 -9q17 -9 24 -19t7 -25q0 -18 -12.5 -31t-29.5 -13q-20 0 -35 17t-15 40q0 24 12 44.5t32.5 35.5
t48.5 23.5t61 8.5q152 0 152 -136v-191q0 -37 9.5 -58.5t26.5 -21.5q26 0 38.5 31.5t17.5 104.5l2 20zM229 689q39 0 66.5 -27.5t27.5 -66.5q0 -37 -26.5 -63t-64.5 -26q-39 0 -66 26t-27 64t26 65.5t64 27.5zM229 661q-26 0 -44 -19t-18 -46q0 -26 19 -44.5t45 -18.5
t45 17.5t19 42.5q0 29 -19 48.5t-47 19.5z" />
    <glyph glyph-name="ae" unicode="&#xe6;" horiz-adv-x="677" 
d="M522 228q27 0 36.5 11.5t9.5 43.5q0 61 -25 96t-67 35q-40 0 -62 -18t-31.5 -46t-10.5 -60.5t0 -61.5h150zM298 270q0 51 -6 77.5t-21 41.5q-11 11 -28.5 18.5t-34.5 7.5t-33 -4t-29 -10.5t-20.5 -14.5t-7.5 -16q0 -5 3 -8t11 -8q14 -8 20 -17.5t6 -24.5q0 -20 -12.5 -32
t-33.5 -12q-19 0 -31 14t-12 36q0 23 11.5 43.5t31 36t45.5 24.5t54 9q42 0 73.5 -20.5t57.5 -65.5q5 9 15 23.5t26 28t38.5 23.5t52.5 10q36 0 67 -16.5t53.5 -45.5t36 -69t14.5 -87h-273q0 -24 0.5 -47t4.5 -44.5t13 -40.5t25 -34q15 -15 35.5 -23t42.5 -8q52 0 92.5 34.5
t53.5 89.5h17q-20 -71 -67 -109t-114 -38q-57 0 -98.5 33t-65.5 99q-43 -131 -153 -131q-24 0 -45 8t-36.5 22.5t-24.5 33.5t-9 41q0 32 28 60q26 27 60 39.5t69 21.5q19 5 32.5 8.5t24.5 7t20.5 7.5t20.5 10v18zM297 232q-14 -7 -26.5 -10.5l-37.5 -10.5q-20 -6 -40 -12.5
t-35.5 -19.5t-25.5 -33.5t-10 -54.5t17 -55.5t44 -21.5q23 0 43.5 13t36.5 35t25 51t9 61v58z" />
    <glyph glyph-name="ccedilla" unicode="&#xe7;" horiz-adv-x="448" 
d="M226 -2q-33 7 -62.5 26.5t-51.5 47.5t-34.5 63t-12.5 73q0 45 16 85t43.5 71t63.5 49t76 18q29 0 56.5 -11t49 -29t34.5 -41t13 -47q0 -27 -14 -43.5t-37 -16.5q-19 0 -32 15t-13 38q0 15 6.5 25t23.5 18t17 19q0 10 -9 20t-24 18t-33 13t-36 5q-62 0 -89.5 -47
t-27.5 -151q0 -100 31 -153t89 -53q29 0 53.5 11.5t43 31.5t29.5 48.5t13 61.5l15 -1q-2 -26 -4.5 -39.5t-8.5 -29.5q-22 -51 -64 -76t-84 -25q-7 0 -9 1l-25 -36q64 -22 64 -73q0 -32 -30.5 -58t-75.5 -34q-20 -3 -34.5 -3.5t-39.5 -0.5v21q24 2 38 3.5t23.5 4t16 5.5
t14.5 9q5 5 13.5 14.5t8.5 26.5q0 21 -15 30.5t-50 11.5z" />
    <glyph glyph-name="egrave" unicode="&#xe8;" horiz-adv-x="448" 
d="M306 249q17 0 23 7t6 27q0 63 -29 100t-78 37q-29 0 -51 -17t-35 -49q-5 -12 -8 -22.5t-5 -22t-3 -26t-2 -34.5h182zM426 162q-7 -28 -12 -43t-16 -33q-27 -46 -69 -70.5t-91 -24.5q-43 0 -79.5 17.5t-63.5 48.5t-42.5 72t-15.5 89q0 45 15 84.5t40.5 69t60.5 46.5t74 17
q38 0 72 -15.5t60 -42.5t42.5 -64.5t20.5 -82.5h-298q0 -25 1.5 -62.5t13 -72t37 -59.5t72.5 -25q60 0 103 40.5t59 110.5h16zM280 505l-89 73q-22 18 -31.5 28t-9.5 24q0 12 9 20.5t23 8.5q16 0 28.5 -12t32.5 -46l56 -96h-19z" />
    <glyph glyph-name="eacute" unicode="&#xe9;" horiz-adv-x="448" 
d="M306 249q17 0 23 7t6 27q0 63 -29 100t-78 37q-29 0 -51 -17t-35 -49q-5 -12 -8 -22.5t-5 -22t-3 -26t-2 -34.5h182zM426 162q-7 -28 -12 -43t-16 -33q-27 -46 -69 -70.5t-91 -24.5q-43 0 -79.5 17.5t-63.5 48.5t-42.5 72t-15.5 89q0 45 15 84.5t40.5 69t60.5 46.5t74 17
q38 0 72 -15.5t60 -42.5t42.5 -64.5t20.5 -82.5h-298q0 -25 1.5 -62.5t13 -72t37 -59.5t72.5 -25q60 0 103 40.5t59 110.5h16zM210 505h-20l57 96q20 34 32.5 46t28.5 12q13 0 22 -8.5t9 -20.5q0 -14 -9.5 -24t-31.5 -28z" />
    <glyph glyph-name="ecircumflex" unicode="&#xea;" horiz-adv-x="448" 
d="M306 249q17 0 23 7t6 27q0 63 -29 100t-78 37q-29 0 -51 -17t-35 -49q-5 -12 -8 -22.5t-5 -22t-3 -26t-2 -34.5h182zM426 162q-7 -28 -12 -43t-16 -33q-27 -46 -69 -70.5t-91 -24.5q-43 0 -79.5 17.5t-63.5 48.5t-42.5 72t-15.5 89q0 45 15 84.5t40.5 69t60.5 46.5t74 17
q38 0 72 -15.5t60 -42.5t42.5 -64.5t20.5 -82.5h-298q0 -25 1.5 -62.5t13 -72t37 -59.5t72.5 -25q60 0 103 40.5t59 110.5h16zM187 649h76l103 -145h-21l-121 95l-120 -95h-20z" />
    <glyph glyph-name="edieresis" unicode="&#xeb;" horiz-adv-x="448" 
d="M306 249q17 0 23 7t6 27q0 63 -29 100t-78 37q-29 0 -51 -17t-35 -49q-5 -12 -8 -22.5t-5 -22t-3 -26t-2 -34.5h182zM426 162q-7 -28 -12 -43t-16 -33q-27 -46 -69 -70.5t-91 -24.5q-43 0 -79.5 17.5t-63.5 48.5t-42.5 72t-15.5 89q0 45 15 84.5t40.5 69t60.5 46.5t74 17
q38 0 72 -15.5t60 -42.5t42.5 -64.5t20.5 -82.5h-298q0 -25 1.5 -62.5t13 -72t37 -59.5t72.5 -25q60 0 103 40.5t59 110.5h16zM135 585q17 0 28.5 -11t11.5 -26q0 -17 -11 -29.5t-27 -12.5q-17 0 -29 12t-12 29q0 16 11.5 27t27.5 11zM314 584q16 0 27.5 -11.5t11.5 -27.5
t-11 -27.5t-27 -11.5q-17 0 -29 11.5t-12 28.5q0 16 11.5 27t28.5 11z" />
    <glyph glyph-name="igrave" unicode="&#xec;" horiz-adv-x="281" 
d="M177 429q-1 -52 -1 -103v-102v-99.5t0.5 -53.5t1.5 -24.5t3 -12.5q2 -5 8 -12t28 -7h32v-15h-221v15h35q23 0 31.5 11t8.5 38v295q0 21 -13 33t-37 12h-30v15q29 0 52.5 1t34.5 2l54 7h13zM156 505l-89 73q-22 18 -31.5 28t-9.5 24q0 12 9 20.5t23 8.5q16 0 28.5 -12
t32.5 -46l56 -96h-19z" />
    <glyph glyph-name="iacute" unicode="&#xed;" horiz-adv-x="281" 
d="M177 429q-1 -52 -1 -103v-102v-99.5t0.5 -53.5t1.5 -24.5t3 -12.5q2 -5 8 -12t28 -7h32v-15h-221v15h35q23 0 31.5 11t8.5 38v295q0 21 -13 33t-37 12h-30v15q29 0 52.5 1t34.5 2l54 7h13zM86 505h-20l57 96q20 34 32.5 46t28.5 12q13 0 22 -8.5t9 -20.5q0 -14 -9.5 -24
t-31.5 -28z" />
    <glyph glyph-name="icircumflex" unicode="&#xee;" horiz-adv-x="281" 
d="M177 429q-1 -52 -1 -103v-102v-99.5t0.5 -53.5t1.5 -24.5t3 -12.5q2 -5 8 -12t28 -7h32v-15h-221v15h35q23 0 31.5 11t8.5 38v295q0 21 -13 33t-37 12h-30v15q29 0 52.5 1t34.5 2l54 7h13zM103 649h76l103 -145h-21l-121 95l-120 -95h-20z" />
    <glyph glyph-name="idieresis" unicode="&#xef;" horiz-adv-x="281" 
d="M177 429q-1 -52 -1 -103v-102v-99.5t0.5 -53.5t1.5 -24.5t3 -12.5q2 -5 8 -12t28 -7h32v-15h-221v15h35q23 0 31.5 11t8.5 38v295q0 21 -13 33t-37 12h-30v15q29 0 52.5 1t34.5 2l54 7h13zM51 585q17 0 28.5 -11t11.5 -26q0 -17 -11 -29.5t-27 -12.5q-17 0 -29 12t-12 29
q0 16 11.5 27t27.5 11zM230 584q16 0 27.5 -11.5t11.5 -27.5t-11 -27.5t-27 -11.5q-17 0 -29 11.5t-12 28.5q0 16 11.5 27t28.5 11z" />
    <glyph glyph-name="eth" unicode="&#xf0;" 
d="M125 214q0 -102 31.5 -155.5t91.5 -53.5h3q45 2 71 22.5t39.5 53t17 73.5t3.5 82q0 57 -10.5 90.5t-36.5 58.5q-35 34 -84 34q-48 0 -82 -34q-25 -24 -34.5 -62t-9.5 -109zM176 571l92 47q-30 30 -78 64l9 14q26 -14 49 -30.5t45 -34.5l97 48l8 -17l-90 -45
q38 -35 67.5 -75t51.5 -89q38 -87 38 -182q0 -62 -15.5 -113.5t-44 -89t-68 -58t-86.5 -20.5q-42 0 -80 18t-66.5 48.5t-45.5 71t-17 86.5q0 44 17 84t45 70.5t64.5 49t75.5 18.5q38 0 72 -20t59 -58q-3 44 -9.5 79t-17.5 64t-27 54t-39 49l-98 -50z" />
    <glyph glyph-name="ntilde" unicode="&#xf1;" horiz-adv-x="563" 
d="M186 304q15 41 36.5 66.5t44 39t42 18t30.5 4.5q24 0 49.5 -9.5t40.5 -24.5t24 -32.5t13.5 -35.5t5.5 -35.5t2 -32.5v-198q0 -27 9 -38t31 -11h33v-15h-224v15h35q23 0 31.5 11t8.5 38v223q0 63 -18 91.5t-56 28.5q-30 0 -55.5 -16t-44 -44.5t-29 -67.5t-10.5 -86v-129
q0 -27 8.5 -38t31.5 -11h32v-15h-223v15h35q23 0 31.5 11t8.5 38v296q0 44 -51 44h-27v15h34q3 0 12.5 0.5t21.5 1.5t22.5 2t14.5 1q14 2 21.5 3.5t8.5 1.5h20v-125zM325 568q26 -15 44 -15q19 0 32 16.5t15 42.5h16q-9 -107 -82 -107q-17 0 -32 5t-37 17l-42 23
q-25 15 -44 15q-14 0 -22.5 -6t-14 -15t-7.5 -19.5t-4 -19.5h-15q6 107 88 107q13 0 31 -5.5t35 -15.5z" />
    <glyph glyph-name="ograve" unicode="&#xf2;" 
d="M250 -9q-43 2 -81 20.5t-66 48.5t-44.5 69.5t-16.5 82.5q0 44 17 85t46 72t66.5 49.5t78.5 18.5q46 0 85.5 -17.5t69 -47.5t46.5 -70.5t17 -87.5q0 -50 -20.5 -92t-52 -72t-70.5 -45.5t-75 -13.5zM252 7q70 0 101 49.5t31 161.5q0 203 -127 203q-69 0 -100 -50.5
t-31 -160.5q0 -203 126 -203zM271 505l-89 73q-22 18 -31.5 28t-9.5 24q0 12 9 20.5t23 8.5q16 0 28.5 -12t32.5 -46l56 -96h-19z" />
    <glyph glyph-name="oacute" unicode="&#xf3;" 
d="M250 -9q-43 2 -81 20.5t-66 48.5t-44.5 69.5t-16.5 82.5q0 44 17 85t46 72t66.5 49.5t78.5 18.5q46 0 85.5 -17.5t69 -47.5t46.5 -70.5t17 -87.5q0 -50 -20.5 -92t-52 -72t-70.5 -45.5t-75 -13.5zM252 7q70 0 101 49.5t31 161.5q0 203 -127 203q-69 0 -100 -50.5
t-31 -160.5q0 -203 126 -203zM231 505h-20l57 96q20 34 32.5 46t28.5 12q13 0 22 -8.5t9 -20.5q0 -14 -9.5 -24t-31.5 -28z" />
    <glyph glyph-name="ocircumflex" unicode="&#xf4;" 
d="M250 -9q-43 2 -81 20.5t-66 48.5t-44.5 69.5t-16.5 82.5q0 44 17 85t46 72t66.5 49.5t78.5 18.5q46 0 85.5 -17.5t69 -47.5t46.5 -70.5t17 -87.5q0 -50 -20.5 -92t-52 -72t-70.5 -45.5t-75 -13.5zM252 7q70 0 101 49.5t31 161.5q0 203 -127 203q-69 0 -100 -50.5
t-31 -160.5q0 -203 126 -203zM218 649h76l103 -145h-21l-121 95l-120 -95h-20z" />
    <glyph glyph-name="otilde" unicode="&#xf5;" 
d="M250 -9q-43 2 -81 20.5t-66 48.5t-44.5 69.5t-16.5 82.5q0 44 17 85t46 72t66.5 49.5t78.5 18.5q46 0 85.5 -17.5t69 -47.5t46.5 -70.5t17 -87.5q0 -50 -20.5 -92t-52 -72t-70.5 -45.5t-75 -13.5zM252 7q70 0 101 49.5t31 161.5q0 203 -127 203q-69 0 -100 -50.5
t-31 -160.5q0 -203 126 -203zM299 568q26 -15 44 -15q19 0 32 16.5t15 42.5h16q-9 -107 -82 -107q-17 0 -32 5t-37 17l-42 23q-25 15 -44 15q-14 0 -22.5 -6t-14 -15t-7.5 -19.5t-4 -19.5h-15q6 107 88 107q13 0 31 -5.5t35 -15.5z" />
    <glyph glyph-name="odieresis" unicode="&#xf6;" 
d="M250 -9q-43 2 -81 20.5t-66 48.5t-44.5 69.5t-16.5 82.5q0 44 17 85t46 72t66.5 49.5t78.5 18.5q46 0 85.5 -17.5t69 -47.5t46.5 -70.5t17 -87.5q0 -50 -20.5 -92t-52 -72t-70.5 -45.5t-75 -13.5zM252 7q70 0 101 49.5t31 161.5q0 203 -127 203q-69 0 -100 -50.5
t-31 -160.5q0 -203 126 -203zM166 585q17 0 28.5 -11t11.5 -26q0 -17 -11 -29.5t-27 -12.5q-17 0 -29 12t-12 29q0 16 11.5 27t27.5 11zM345 584q16 0 27.5 -11.5t11.5 -27.5t-11 -27.5t-27 -11.5q-17 0 -29 11.5t-12 28.5q0 16 11.5 27t28.5 11z" />
    <glyph glyph-name="divide" unicode="&#xf7;" horiz-adv-x="668" 
d="M302 525q1 11 9.5 19t21.5 8q12 0 20.5 -8.5t8.5 -21.5q0 -12 -8.5 -21t-20.5 -9q-13 0 -22 9.5t-9 23.5zM302 121q0 13 9 21.5t22 8.5t21.5 -8.5t8.5 -21.5q0 -12 -9 -21t-21 -9q-13 0 -22 9t-9 21zM72 343h524v-43h-524v43z" />
    <glyph glyph-name="oslash" unicode="&#xf8;" 
d="M150 75q29 -68 102 -68q70 0 101 49.5t31 161.5q0 65 -14 110zM363 348q-30 73 -106 73q-69 0 -100 -50.5t-31 -160.5q0 -70 15 -117zM108 55q-31 30 -48.5 70.5t-17.5 86.5q0 44 17 85t46 72t66.5 49.5t78.5 18.5q42 0 78 -14.5t65 -40.5l64 74l14 -12l-65 -75
q29 -30 45.5 -69.5t16.5 -85.5q0 -50 -20.5 -92t-52 -72t-70.5 -45.5t-75 -13.5q-37 2 -69.5 15.5t-58.5 36.5l-67 -77l-14 12z" />
    <glyph glyph-name="ugrave" unicode="&#xf9;" horiz-adv-x="563" 
d="M20 419q23 0 53.5 1t56.5 6q20 4 27 4h23v-329q0 -40 16.5 -62t47.5 -22q27 0 51.5 17t43 46t29.5 67t11 81v128q0 26 -12.5 37t-41.5 11h-51v15h60q17 0 40 2.5t45 7.5q4 1 6.5 1h3.5h26v-361q0 -29 12.5 -41.5t41.5 -12.5h20v-15h-102q-3 0 -7 -1h-15q-9 -1 -16.5 -1.5
t-9.5 -0.5v122q-58 -127 -155 -127q-25 0 -47 10t-38 27t-25 40.5t-9 51.5v243q0 17 -13 28.5t-30 11.5h-42v15zM292 505l-89 73q-22 18 -31.5 28t-9.5 24q0 12 9 20.5t23 8.5q16 0 28.5 -12t32.5 -46l56 -96h-19z" />
    <glyph glyph-name="uacute" unicode="&#xfa;" horiz-adv-x="563" 
d="M20 419q23 0 53.5 1t56.5 6q20 4 27 4h23v-329q0 -40 16.5 -62t47.5 -22q27 0 51.5 17t43 46t29.5 67t11 81v128q0 26 -12.5 37t-41.5 11h-51v15h60q17 0 40 2.5t45 7.5q4 1 6.5 1h3.5h26v-361q0 -29 12.5 -41.5t41.5 -12.5h20v-15h-102q-3 0 -7 -1h-15q-9 -1 -16.5 -1.5
t-9.5 -0.5v122q-58 -127 -155 -127q-25 0 -47 10t-38 27t-25 40.5t-9 51.5v243q0 17 -13 28.5t-30 11.5h-42v15zM227 505h-20l57 96q20 34 32.5 46t28.5 12q13 0 22 -8.5t9 -20.5q0 -14 -9.5 -24t-31.5 -28z" />
    <glyph glyph-name="ucircumflex" unicode="&#xfb;" horiz-adv-x="563" 
d="M20 419q23 0 53.5 1t56.5 6q20 4 27 4h23v-329q0 -40 16.5 -62t47.5 -22q27 0 51.5 17t43 46t29.5 67t11 81v128q0 26 -12.5 37t-41.5 11h-51v15h60q17 0 40 2.5t45 7.5q4 1 6.5 1h3.5h26v-361q0 -29 12.5 -41.5t41.5 -12.5h20v-15h-102q-3 0 -7 -1h-15q-9 -1 -16.5 -1.5
t-9.5 -0.5v122q-58 -127 -155 -127q-25 0 -47 10t-38 27t-25 40.5t-9 51.5v243q0 17 -13 28.5t-30 11.5h-42v15zM244 649h76l103 -145h-21l-121 95l-120 -95h-20z" />
    <glyph glyph-name="udieresis" unicode="&#xfc;" horiz-adv-x="563" 
d="M20 419q23 0 53.5 1t56.5 6q20 4 27 4h23v-329q0 -40 16.5 -62t47.5 -22q27 0 51.5 17t43 46t29.5 67t11 81v128q0 26 -12.5 37t-41.5 11h-51v15h60q17 0 40 2.5t45 7.5q4 1 6.5 1h3.5h26v-361q0 -29 12.5 -41.5t41.5 -12.5h20v-15h-102q-3 0 -7 -1h-15q-9 -1 -16.5 -1.5
t-9.5 -0.5v122q-58 -127 -155 -127q-25 0 -47 10t-38 27t-25 40.5t-9 51.5v243q0 17 -13 28.5t-30 11.5h-42v15zM192 585q17 0 28.5 -11t11.5 -26q0 -17 -11 -29.5t-27 -12.5q-17 0 -29 12t-12 29q0 16 11.5 27t27.5 11zM371 584q16 0 27.5 -11.5t11.5 -27.5t-11 -27.5
t-27 -11.5q-17 0 -29 11.5t-12 28.5q0 16 11.5 27t28.5 11z" />
    <glyph glyph-name="yacute" unicode="&#xfd;" horiz-adv-x="563" 
d="M15 419h255v-15h-54q-15 0 -24.5 -7t-9.5 -19q0 -3 2 -11l126 -303l91 219q7 16 12.5 39t5.5 34q0 48 -59 48h-29v15h208v-15q-41 -1 -64.5 -22t-46.5 -76l-173 -416q-8 -19 -20.5 -42t-31 -43.5t-43 -34t-55.5 -13.5q-38 0 -64.5 23.5t-26.5 56.5q0 25 14.5 40.5
t37.5 15.5q20 0 34 -16.5t14 -39.5q0 -11 -3 -18t-11 -16q-5 -6 -6.5 -9t-1.5 -7q0 -13 21 -13q73 0 128 126l30 68l-151 364q-17 42 -32 57t-40 15h-33v15zM247 505h-20l57 96q20 34 32.5 46t28.5 12q13 0 22 -8.5t9 -20.5q0 -14 -9.5 -24t-31.5 -28z" />
    <glyph glyph-name="thorn" unicode="&#xfe;" horiz-adv-x="563" 
d="M325 425q-31 -1 -56.5 -17t-43.5 -43.5t-27.5 -65.5t-9.5 -84q0 -44 10.5 -82t29 -65.5t44 -43.5t54.5 -16q108 0 108 234q0 89 -27.5 136t-79.5 47h-2zM189 331q49 110 142 110q36 0 69.5 -18.5t59 -49t41 -71t15.5 -84.5q0 -46 -15 -87t-41 -72t-60.5 -49t-73.5 -18
q-92 0 -138 121v-301q0 -30 35 -30h69v-15h-286v16h70q36 0 36 44v775q0 25 -16.5 38.5t-46.5 13.5h-22v16q13 0 31 1t35 2t32 2.5t22 2.5q17 3 22 3h20v-350z" />
    <glyph glyph-name="ydieresis" unicode="&#xff;" horiz-adv-x="563" 
d="M15 419h255v-15h-54q-15 0 -24.5 -7t-9.5 -19q0 -3 2 -11l126 -303l91 219q7 16 12.5 39t5.5 34q0 48 -59 48h-29v15h208v-15q-41 -1 -64.5 -22t-46.5 -76l-173 -416q-8 -19 -20.5 -42t-31 -43.5t-43 -34t-55.5 -13.5q-38 0 -64.5 23.5t-26.5 56.5q0 25 14.5 40.5
t37.5 15.5q20 0 34 -16.5t14 -39.5q0 -11 -3 -18t-11 -16q-5 -6 -6.5 -9t-1.5 -7q0 -13 21 -13q73 0 128 126l30 68l-151 364q-17 42 -32 57t-40 15h-33v15zM202 585q17 0 28.5 -11t11.5 -26q0 -17 -11 -29.5t-27 -12.5q-17 0 -29 12t-12 29q0 16 11.5 27t27.5 11zM381 584
q16 0 27.5 -11.5t11.5 -27.5t-11 -27.5t-27 -11.5q-17 0 -29 11.5t-12 28.5q0 16 11.5 27t28.5 11z" />
    <glyph glyph-name="dotlessi" unicode="&#x131;" horiz-adv-x="281" 
d="M177 429q-1 -52 -1 -103v-102v-99.5t0.5 -53.5t1.5 -24.5t3 -12.5q2 -5 8 -12t28 -7h32v-15h-221v15h35q23 0 31.5 11t8.5 38v295q0 21 -13 33t-37 12h-30v15q29 0 52.5 1t34.5 2l54 7h13z" />
    <glyph glyph-name="Lslash" unicode="&#x141;" horiz-adv-x="677" 
d="M430 501l-156 -129v-308q0 -49 50 -49h55q140 0 215 146q17 31 24.5 52t13.5 50h13l-8 -263h-598v15h86q49 0 49 55v230l-135 -111v24l135 111v275q0 35 -13.5 48t-50.5 13h-70v16h368v-17h-85q-49 0 -49 -68v-194l156 127v-23z" />
    <glyph glyph-name="lslash" unicode="&#x142;" horiz-adv-x="281" 
d="M254 420l-72 -60v-316q0 -28 28 -28h44v-16h-228v16h46q20 0 28 10.5t8 35.5v246l-74 -60v24l74 60v266q0 55 -43 55h-37v16q26 0 50 1.5t33 2.5l50 6h23q-2 -75 -2 -148v-147l72 60v-24z" />
    <glyph glyph-name="OE" unicode="&#x152;" horiz-adv-x="1010" 
d="M508 492q0 86 -36 130.5t-105 44.5q-41 0 -76 -14.5t-61 -41.5q-35 -35 -50.5 -100.5t-15.5 -171.5t15.5 -171.5t48.5 -101.5q48 -53 127 -53q153 0 153 186v293zM969 0h-529q-4 0 -16.5 -0.5t-26 -1t-26 -1.5t-17.5 -1q-61 0 -115 27t-94.5 73t-64.5 107t-24 129
q0 93 43 174t118 130q37 25 76.5 35.5t93.5 10.5q6 0 22 -0.5t34 -2.5q18 -1 34 -2t23 -1h459v-251h-15q-7 65 -28 110t-50 73t-64.5 40t-71.5 12h-88q-32 0 -32 -31v-279h57q35 0 62.5 19t40.5 51q9 21 12.5 45t3.5 62h14v-373h-15q0 53 -9.5 87t-29.5 55q-17 17 -42 27.5
t-52 10.5h-42v-291q0 -26 32 -26h103q90 0 145.5 64.5t67.5 182.5h14z" />
    <glyph glyph-name="oe" unicode="&#x153;" horiz-adv-x="792" 
d="M633 234q17 0 24 10t7 33q0 66 -28 104t-76 38q-29 0 -53 -16t-35 -42q-8 -21 -11.5 -47.5t-3.5 -79.5h176zM750 148q-8 -34 -16 -52t-24 -38q-53 -67 -139 -67q-51 0 -89.5 27t-68.5 85q-58 -111 -151 -111q-37 0 -73 19t-64 50t-45 71t-17 82q0 44 17 84.5t46 71
t67.5 48.5t80.5 18q93 0 148 -100q26 49 62.5 74.5t80.5 25.5q12 0 39 -6t56.5 -28t54 -65.5t31.5 -118.5h-289q-1 -51 5 -94t35 -74q17 -18 39.5 -27.5t45.5 -9.5q27 0 55.5 11.5t47.5 29.5q33 32 47 94h18zM264 8q45 1 75 31q24 24 34.5 64.5t10.5 112.5q0 40 -2 68.5
t-6.5 49t-12.5 35t-19 24.5q-13 13 -32 20.5t-37 7.5q-46 0 -71.5 -22.5t-37.5 -55t-14 -69t-2 -64.5q0 -80 13.5 -121.5t47.5 -64.5q25 -16 53 -16z" />
    <glyph glyph-name="Scaron" unicode="&#x160;" horiz-adv-x="563" 
d="M65 300q4 -21 11 -52t19.5 -65t31.5 -67.5t46.5 -60.5t65 -44t87.5 -17q32 0 58 10t45.5 27t30 41.5t10.5 52.5q0 36 -19.5 63.5t-49.5 48t-65.5 36t-68.5 27.5q-109 41 -145 71q-5 4 -9.5 8t-9.5 9q-23 25 -36.5 56.5t-13.5 61.5q0 38 14 71.5t38 58t56.5 38.5t70.5 14
q52 0 93 -20.5t88 -71.5q20 22 30 39.5t19 44.5h17v-260h-16q-3 21 -6 37t-7 29t-9 25t-12 26q-29 59 -80 98t-116 39q-27 0 -51 -9.5t-42.5 -25t-29 -36.5t-10.5 -45q0 -28 14.5 -49.5t39.5 -39t59 -32.5t74 -29q54 -20 91.5 -38t56.5 -33q42 -35 61 -77t19 -85t-14.5 -79
t-41 -62t-62.5 -41t-79 -15q-57 0 -107.5 30t-89.5 87q-11 -16 -24 -39.5t-31 -70.5h-17v315h16zM289 761h-75l-103 145h21l121 -95l119 95h21z" />
    <glyph glyph-name="scaron" unicode="&#x161;" horiz-adv-x="396" 
d="M59 183q11 -47 25 -76.5t37 -52.5t52 -35t61 -12q38 0 64.5 21.5t26.5 52.5q0 35 -26.5 56.5t-97.5 43.5q-33 11 -54.5 19.5t-35 16t-22 14.5t-16.5 14q-28 28 -28 75q0 25 9 46.5t24.5 37.5t36.5 25t45 9q17 0 30.5 -2.5t27 -8.5t28.5 -16.5t34 -27.5q14 12 20.5 22.5
t11.5 27.5h16v-168h-14q-9 42 -19.5 65.5t-29.5 43.5q-46 48 -100 48q-37 0 -62 -20.5t-25 -51.5q0 -19 10.5 -32.5t28 -23.5t38.5 -17t42 -13q37 -11 67.5 -23.5t52 -29t33.5 -39t12 -53.5q0 -28 -10 -51.5t-28 -40.5t-43 -26.5t-54 -9.5q-74 0 -131 65q-6 -7 -9.5 -12
t-7.5 -11.5t-9 -16t-13 -25.5h-13v192h15zM206 504h-75l-103 145h21l121 -95l119 95h21z" />
    <glyph glyph-name="Ydieresis" unicode="&#x178;" horiz-adv-x="792" 
d="M458 251q-2 -26 -2 -50.5v-50.5q0 -36 1 -61.5t5.5 -42t15.5 -24t30 -7.5h68v-15h-354v15h85q23 0 36.5 15t13.5 43v169l-209 385q-18 34 -62 34h-47v15h339v-15h-82q-34 0 -34 -23q0 -12 8 -26l182 -335l133 251q8 17 14 36t6 32q0 31 -22 48t-60 17h-54v15h303v-15
q-37 -1 -62 -11t-46 -30.5t-40.5 -54t-44.5 -81.5zM307 842q17 0 28.5 -11t11.5 -26q0 -17 -11 -29.5t-27 -12.5q-17 0 -29 12t-12 29q0 16 11.5 27t27.5 11zM486 841q16 0 27.5 -11.5t11.5 -27.5t-11 -27.5t-27 -11.5q-17 0 -29 11.5t-12 28.5q0 16 11.5 27t28.5 11z" />
    <glyph glyph-name="Zcaron" unicode="&#x17d;" horiz-adv-x="615" 
d="M89 676h506l-447 -659h168q52 0 102.5 34t82.5 89q13 23 22 48t20 70h16l-6 -258h-533l448 658h-147q-85 0 -144 -59.5t-78 -162.5h-14zM345 761h-75l-103 145h21l121 -95l119 95h21z" />
    <glyph glyph-name="zcaron" unicode="&#x17e;" horiz-adv-x="448" 
d="M60 419h341l-265 -402h113q41 0 72.5 19.5t49.5 56.5q9 17 13 32.5t8 44.5h16v-170h-367v8l260 395h-74q-67 0 -103.5 -36.5t-47.5 -114.5h-16v167zM262 504h-75l-103 145h21l121 -95l119 95h21z" />
    <glyph glyph-name="florin" unicode="&#x192;" horiz-adv-x="488" 
d="M401 427l-8 -32h-85q-4 -25 -8 -43.5t-8.5 -37.5t-10 -43t-14.5 -59q-13 -50 -25 -96.5t-25 -90.5q-65 -235 -178 -235q-26 0 -42.5 14.5t-16.5 38.5q0 17 11.5 29.5t27.5 12.5q11 0 21 -8.5t10 -18.5q0 -5 -1.5 -10t-3.5 -7q-5 -5 -6 -7t-1 -5q0 -4 3.5 -7t8.5 -3
q51 0 81 145l42 207l51 205l4 19h-86l7 32q30 2 47 4.5t28 11t18.5 25t17.5 47.5q9 26 20 54.5t27 52.5t38.5 39.5t53.5 15.5q30 0 49 -15.5t19 -39.5q0 -16 -9.5 -26.5t-23.5 -10.5q-12 0 -21.5 8.5t-9.5 19.5q0 9 6 18q3 7 3.5 8.5t0.5 3.5q0 14 -18 14q-14 0 -27.5 -12
t-18.5 -29q-6 -16 -12 -59l-23 -130h87z" />
    <glyph glyph-name="circumflex" unicode="&#x2c6;" horiz-adv-x="333" 
d="M129 649h76l103 -145h-21l-121 95l-120 -95h-20z" />
    <glyph glyph-name="caron" unicode="&#x2c7;" horiz-adv-x="333" 
d="M204 504h-75l-103 145h21l121 -95l119 95h21z" />
    <glyph glyph-name="breve" unicode="&#x2d8;" horiz-adv-x="333" 
d="M299 640q-5 -61 -41.5 -98t-91.5 -37q-53 0 -89 37t-43 98h21q8 -34 38 -54.5t72 -20.5q45 0 72.5 18t41.5 57h20z" />
    <glyph glyph-name="dotaccent" unicode="&#x2d9;" horiz-adv-x="333" 
d="M163 599q22 0 37 -13.5t15 -33.5t-13.5 -34t-32.5 -14q-21 0 -35.5 13.5t-14.5 32.5q0 20 13 34.5t31 14.5z" />
    <glyph glyph-name="ring" unicode="&#x2da;" horiz-adv-x="333" 
d="M165 689q39 0 66.5 -27.5t27.5 -66.5q0 -37 -26.5 -63t-64.5 -26q-39 0 -66 26t-27 64t26 65.5t64 27.5zM165 661q-26 0 -44 -19t-18 -46q0 -26 19 -44.5t45 -18.5t45 17.5t19 42.5q0 29 -19 48.5t-47 19.5z" />
    <glyph glyph-name="ogonek" unicode="&#x2db;" horiz-adv-x="333" 
d="M275 -150q-55 -31 -109 -31q-48 0 -77.5 26t-29.5 70q0 21 9 42.5t32 50.5h21q-11 -18 -15 -29t-4 -25q0 -46 29.5 -72t81.5 -26q14 0 24.5 2t28.5 9z" />
    <glyph glyph-name="tilde" unicode="&#x2dc;" horiz-adv-x="333" 
d="M210 568q26 -15 44 -15q19 0 32 16.5t15 42.5h16q-9 -107 -82 -107q-17 0 -32 5t-37 17l-42 23q-25 15 -44 15q-14 0 -22.5 -6t-14 -15t-7.5 -19.5t-4 -19.5h-15q6 107 88 107q13 0 31 -5.5t35 -15.5z" />
    <glyph glyph-name="hungarumlaut" unicode="&#x2dd;" horiz-adv-x="333" 
d="M175 505h-19l51 97q11 23 24 40t33 17q14 0 22.5 -7.5t8.5 -19.5q0 -13 -7 -21.5t-30 -30.5zM57 505h-19l51 97q12 23 24.5 40t33.5 17q13 0 22 -7.5t9 -19.5q0 -13 -7.5 -21.5t-30.5 -30.5z" />
    <glyph glyph-name="endash" unicode="&#x2013;" horiz-adv-x="500" 
d="M0 266h500v-22h-500v22z" />
    <glyph glyph-name="emdash" unicode="&#x2014;" horiz-adv-x="1000" 
d="M0 265h1000v-22h-1000v22z" />
    <glyph glyph-name="quoteleft" unicode="&#x2018;" horiz-adv-x="281" 
d="M227 667q-103 -58 -103 -137q0 -22 14 -22q5 0 11 5q8 6 13.5 8t13.5 2q18 0 29.5 -12t11.5 -32t-13 -33t-34 -13q-27 0 -44.5 25.5t-17.5 64.5q0 99 113 158z" />
    <glyph glyph-name="quoteright" unicode="&#x2019;" horiz-adv-x="281" 
d="M54 447q103 58 103 137q0 22 -14 22q-5 0 -11 -5q-8 -6 -13.5 -8t-13.5 -2q-18 0 -29.5 12t-11.5 32t13 33t34 13q27 0 44.5 -25.5t17.5 -64.5q0 -99 -113 -158z" />
    <glyph glyph-name="quotesinglbase" unicode="&#x201a;" horiz-adv-x="281" 
d="M54 -150q103 58 103 137q0 22 -14 22q-5 0 -11 -5q-8 -6 -13.5 -8t-13.5 -2q-18 0 -29.5 12t-11.5 32t13 33t34 13q27 0 44.5 -25.5t17.5 -64.5q0 -99 -113 -158z" />
    <glyph glyph-name="quotedblleft" unicode="&#x201c;" 
d="M421 667q-103 -58 -103 -137q0 -22 14 -22q5 0 11 5q8 6 13.5 8t13.5 2q18 0 29.5 -12t11.5 -32t-13 -33t-34 -13q-27 0 -44.5 25.5t-17.5 64.5q0 99 113 158zM221 667q-103 -58 -103 -137q0 -22 14 -22q5 0 11 5q8 6 13.5 8t13.5 2q18 0 29.5 -12t11.5 -32t-13 -33
t-34 -13q-27 0 -44.5 25.5t-17.5 64.5q0 99 113 158z" />
    <glyph glyph-name="quotedblright" unicode="&#x201d;" 
d="M89 447q103 58 103 137q0 22 -14 22q-5 0 -11 -5q-8 -6 -13.5 -8t-13.5 -2q-18 0 -29.5 12t-11.5 32t13 33t34 13q27 0 44.5 -25.5t17.5 -64.5q0 -99 -113 -158zM289 447q103 58 103 137q0 22 -14 22q-5 0 -11 -5q-8 -6 -13.5 -8t-13.5 -2q-18 0 -29.5 12t-11.5 32t13 33
t34 13q27 0 44.5 -25.5t17.5 -64.5q0 -99 -113 -158z" />
    <glyph glyph-name="quotedblbase" unicode="&#x201e;" 
d="M89 -150q103 58 103 137q0 22 -14 22q-5 0 -11 -5q-8 -6 -13.5 -8t-13.5 -2q-18 0 -29.5 12t-11.5 32t13 33t34 13q27 0 44.5 -25.5t17.5 -64.5q0 -99 -113 -158zM289 -150q103 58 103 137q0 22 -14 22q-5 0 -11 -5q-8 -6 -13.5 -8t-13.5 -2q-18 0 -29.5 12t-11.5 32
t13 33t34 13q27 0 44.5 -25.5t17.5 -64.5q0 -99 -113 -158z" />
    <glyph glyph-name="dagger" unicode="&#x2020;" 
d="M247 -132q0 22 -2 69.5t-6.5 109.5t-13 131t-20.5 135q21 21 30.5 45t11.5 58h-13.5t-15.5 -1.5t-22 -5t-32 -9.5q-24 -8 -37.5 -11t-25.5 -3q-21 0 -36 11t-15 26q0 17 14.5 27.5t39.5 10.5q11 0 24.5 -3t36.5 -11q19 -6 31 -9t21 -4.5t15.5 -2t14.5 -0.5v17t-1.5 18
t-5.5 24t-11 35q-11 30 -15 47t-4 34q0 28 13 47t32 19q18 0 31.5 -20.5t13.5 -46.5q0 -16 -4 -33t-15 -49q-13 -35 -16.5 -53.5t-3.5 -38.5q20 0 37.5 3.5t49.5 13.5q21 7 33.5 10t21.5 3q23 0 40 -11t17 -25q0 -17 -14 -27.5t-37 -10.5q-14 0 -26.5 2.5t-36.5 10.5
q-15 5 -26 8t-20 4.5t-17.5 2t-20.5 0.5q3 -36 12.5 -59.5t29.5 -44.5q-14 -78 -22.5 -157.5t-12.5 -146.5t-5 -114.5t-1 -59.5v-62h-16v97z" />
    <glyph glyph-name="daggerdbl" unicode="&#x2021;" 
d="M246 481q-1 23 -4.5 39t-13.5 45q-8 22 -11 33.5t-3 22.5q0 23 11.5 38.5t28.5 15.5t29 -16t12 -38q0 -11 -3.5 -25t-11.5 -38q-11 -29 -14 -44t-4 -33q14 -1 27 1t46 13q20 8 32 11t23 3q18 0 34 -11t16 -24q0 -15 -15.5 -26t-38.5 -11q-10 0 -20.5 2.5t-29.5 9.5
q-25 10 -37.5 12.5t-35.5 2.5q2 -28 9.5 -45.5t24.5 -35.5q-18 -34 -25.5 -70t-7.5 -90q0 -58 7.5 -94.5t26.5 -72.5q-17 -19 -24 -35t-11 -46q21 0 35 3t41 13q18 8 28.5 10t19.5 2q20 0 36.5 -11.5t16.5 -25.5t-15.5 -25t-36.5 -11q-10 0 -20.5 2.5t-29.5 10.5
q-26 9 -39 12t-36 3q1 -17 4 -31.5t13 -43.5q9 -24 12 -38t3 -26q0 -23 -11.5 -39t-28.5 -16t-28 16.5t-11 39.5q0 12 3 25t11 36q10 29 13 43t4 34q-21 0 -34.5 -3t-39.5 -13q-20 -8 -30.5 -10t-21.5 -2q-20 0 -34.5 11t-14.5 25q0 15 15.5 26t37.5 11q10 0 20 -2.5
t28 -10.5q25 -9 38 -11.5t35 -3.5q0 26 -7 43t-25 38q18 35 25.5 73t7.5 91q0 55 -7.5 91.5t-26.5 71.5q19 24 25.5 40t8.5 41q-16 1 -30 -1t-45 -14q-20 -8 -29.5 -10t-20.5 -2q-20 0 -35.5 11.5t-15.5 25.5t15.5 24.5t37.5 10.5q10 0 20 -2.5t29 -9.5q15 -6 25.5 -9
t18 -4.5t14.5 -2t15 -0.5z" />
    <glyph glyph-name="bullet" unicode="&#x2022;" horiz-adv-x="350" 
d="M175 453q25 0 47.5 -9.5t39 -26t26 -38.5t9.5 -48q0 -25 -9.5 -47.5t-26 -39.5t-39 -26.5t-47.5 -9.5t-47.5 9.5t-39.5 26t-26.5 39t-9.5 47.5q0 26 9.5 48t26.5 39t39.5 26.5t47.5 9.5z" />
    <glyph glyph-name="ellipsis" unicode="&#x2026;" horiz-adv-x="1000" 
d="M167 -17q-24 1 -39.5 16t-15.5 38t16 39t39 16t38.5 -16t15.5 -39q0 -20 -15 -37t-39 -17zM833 92q23 -1 38.5 -16t15.5 -38t-15.5 -39t-38.5 -16t-39 16t-16 39q0 20 15 37t40 17zM500 -17q-24 1 -39.5 16t-15.5 38t16 39t39 16t38.5 -16t15.5 -39q0 -20 -15 -37
t-39 -17z" />
    <glyph glyph-name="perthousand" unicode="&#x2030;" horiz-adv-x="1042" 
d="M532 320q30 0 56.5 -13.5t46 -37t30.5 -55t11 -68.5q0 -39 -11 -72t-30 -57t-45.5 -37.5t-57.5 -13.5q-30 0 -56.5 13.5t-46 37t-30.5 55.5t-11 69q0 39 11 71.5t30 56.5t45.5 37.5t57.5 13.5zM533 -21q37 0 51 31t14 110q0 11 -0.5 31.5t-1.5 41.5t-2 38t-1 19
q-3 24 -18.5 40.5t-41.5 16.5q-38 0 -52.5 -30t-14.5 -110q0 -8 0.5 -27.5t1.5 -40.5t1.5 -38.5t1.5 -23.5q0 -3 2.5 -12.5t9 -19.5t18.5 -18t32 -8zM180 686q30 0 56.5 -13.5t46 -37t30.5 -55t11 -68.5q0 -39 -11 -72t-30 -57t-45.5 -37.5t-57.5 -13.5q-30 0 -56.5 13.5
t-46 37t-30.5 55.5t-11 69q0 39 11 71.5t30 56.5t45.5 37.5t57.5 13.5zM181 345q37 0 51 31t14 110q0 11 -0.5 31.5t-1.5 41.5t-2 38t-1 19q-3 24 -18.5 40.5t-41.5 16.5q-38 0 -52.5 -30t-14.5 -110q0 -8 0.5 -27.5t1.5 -40.5t1.5 -38.5t1.5 -23.5q0 -3 2.5 -12.5t9 -19.5
t18.5 -18t32 -8zM863 320q30 0 56.5 -13.5t46 -37t30.5 -55t11 -68.5q0 -39 -11 -72t-30 -57t-45.5 -37.5t-57.5 -13.5q-30 0 -56.5 13.5t-46 37t-30.5 55.5t-11 69q0 39 11 71.5t30 56.5t45.5 37.5t57.5 13.5zM864 -21q37 0 51 31t14 110q0 11 -0.5 31.5t-1.5 41.5t-2 38
t-1 19q-3 24 -18.5 40.5t-41.5 16.5q-38 0 -52.5 -30t-14.5 -110q0 -8 0.5 -27.5t1.5 -40.5t1.5 -38.5t1.5 -23.5q0 -3 2.5 -12.5t9 -19.5t18.5 -18t32 -8zM585 684h40l-499 -717h-40z" />
    <glyph glyph-name="guilsinglleft" unicode="&#x2039;" horiz-adv-x="281" 
d="M214 -6h-17l-149 225l147 224h19l-90 -224z" />
    <glyph glyph-name="guilsinglright" unicode="&#x203a;" horiz-adv-x="281" 
d="M67 443h17l149 -225l-147 -224h-19l90 224z" />
    <glyph glyph-name="fraction" unicode="&#x2044;" horiz-adv-x="333" 
d="M470 685h42l-628 -719h-42z" />
    <glyph glyph-name="trademark" unicode="&#x2122;" horiz-adv-x="980" 
d="M25 676h355l11 -98h-17q-6 38 -26.5 53t-68.5 15h-36v-282q0 -20 2 -32.5t7.5 -19.5t15.5 -9.5t27 -3.5v-17h-183v17q17 2 26.5 4.5t14.5 9t6.5 18.5t1.5 32v283h-37q-46 0 -65.5 -14.5t-27.5 -53.5h-17zM564 676l134 -280l129 280h136v-18q-18 0 -28.5 -2.5t-16 -9.5
t-7.5 -20t-2 -34v-229q0 -19 1 -31t6.5 -19t16.5 -10t30 -4v-17h-194v17q20 0 31.5 3.5t17.5 11t7.5 19t1.5 29.5v241l-150 -321h-16l-150 317v-236q0 -16 0.5 -28.5t5 -20t14 -11.5t26.5 -4h17v-17h-149v17q19 0 30 3t16.5 10.5t7 19.5t1.5 31v228q0 19 -1 32t-6 20.5
t-16 11t-32 3.5v18h139z" />
    <glyph glyph-name="minus" unicode="&#x2212;" horiz-adv-x="667" 
d="M71 342h524v-43h-524v43z" />
    <glyph glyph-name="fi" unicode="&#xfb01;" horiz-adv-x="563" 
d="M409 419q3 0 12 0.5t19 1.5t19 2t13 1q-1 -51 -1 -101v-101v-98t0.5 -53t1.5 -24.5t3 -12.5q2 -5 8 -12t28 -7h32v-15h-223v15h35q23 0 31.5 11t8.5 38v287q0 24 -6 32t-25 8h-169v-327q0 -27 9 -38t31 -11h33v-15h-224v15h34q23 0 32 11t9 38v327h-81v28h81v34
q0 48 17 90t47 73.5t69.5 50t84.5 18.5q28 0 53 -8t44 -21.5t30 -31.5t11 -38q0 -22 -14 -37t-35 -15q-20 0 -34 13.5t-14 33.5q0 10 2.5 18t10.5 19q7 11 7 17q0 15 -18.5 24.5t-47.5 9.5q-60 0 -97 -39q-21 -21 -31 -51.5t-10 -75.5v-84h214z" />
    <glyph glyph-name="fl" unicode="&#xfb02;" horiz-adv-x="563" 
d="M394 545q-11 11 -15 20t-4 23q0 11 3.5 18t7 12.5t7 10.5t3.5 11q0 14 -20.5 22.5t-52.5 8.5q-23 0 -48.5 -10t-42.5 -27q-42 -43 -42 -142v-73h204v126zM117 438q0 66 21 113.5t52.5 78t68.5 44.5t68 14q9 0 19 -1t20 -3q23 -5 39 -5q9 0 20 1.5t35 6.5h9v-623
q0 -27 10.5 -38t32.5 -11h40v-15h-234v15h36q23 0 31.5 11t8.5 38v327h-203v-327q0 -27 9 -38t31 -11h40v-15h-231v15h36q22 0 31 11t9 38v327h-76v28h77v19z" />
    </font>
</defs>
</svg>
